Ensemble les Surprises, Louis-Noël Bestion de Camboulas and Yves Rechsteiner - L'Héritage de Rameau (2017) [24/96]

Posted By: SERTiL
Ensemble les Surprises, Louis-Noël Bestion de Camboulas and Yves Rechsteiner - L'Héritage de Rameau (2017) [24/96]

Ensemble les Surprises, Louis-Noël Bestion de Camboulas and Yves Rechsteiner - L'Héritage de Rameau (2017)
FLAC (tracks) 24-bit/96 kHz | Time - 54:43 minutes | 1.01 GB
Studio Master, Official Digital Download | Artwork: Digital booklet

The ensemble Les Surprises was born under the lucky star of Jean-Philippe Rameau, since its name refers to Les Surprises de l’Amour, the opéra-ballet he composed in 1748. Hence, after presenting two discs on the Ambronay Éditions label, the first devoted to Rebel and Francoeur, the second to Destouches and Delalande, I thought it important to tackle one of our favourite composers.

TRACKLIST

L’HÉRITAGE DE RAMEAU

Ensemble Les Surprises
Louis-Noël Bestion de Camboulas, direction / Yves Rechsteiner, orgue

Concerto “Les Sauvages”, Jean-Philippe Rameau (arrangement : Yves Rechsteiner)
1 Allegro : Air pour les esclaves africains 4’07
2 Air tendre 3’28
3 Allegro : Les Sauvages 3'28

Suite de Symphonie, François Rebel et François Francoeur
4 Prélude et Rondeau 7'02
5 Sarabande 1'37
6 Musette 1'24
7 Fanfare 1'17

Concerto “Les Enfers”, Jean-Philippe Rameau (arrangement : Y. Rechsteiner)
8 Prélude et Air pour les Parques 5'35
9 Tristes apprêts 4'47
10 Contredanse 3'08

Suite de Symphonie, François Rebel et François Francoeur
11 Forlanes 2'49
12 Marche 1'05
13 Trio et Air tendre 3'44

Concerto “Les Amours”, Jean-Philippe Rameau (arrangement : Y. Rechsteiner)
14 Rigaudon ou les Niais de Sologne 4'07
15 Air pour les Amours 2'36
16 Musette 2'19
17 Tambourins 2'10

Ensemble Les Surprises
Louis-Noël Bestion de Camboulas, clavecin et direction
Alice Julien-Laferrière, Gabriel Ferry, Adrien Carré,
Raphaëlle Pacault, Anaëlle Blanc-Verdin, Rachel
Cartry, violons
Lika Laloum, Tiphaine Coquempot, altos
Juliette Guignard, viole de gambe
Julien Hainsworth, violoncelle
Marie-Amélie Clément, contrebasse
Yves Rechsteiner, grand orgue

foobar2000 1.3.7 / Dynamic Range Meter 1.1.1
log date: 2017-09-16 14:39:12

––––––––––––––––––––––––––––––––––––––––
Analyzed: Ensemble les Surprises and Louis-Noël Bestion Camboulas / L'Héritage de Rameau (1-7)
Ensemble les Surprises, Louis-Noël Bestion Camboulas and Yves Rechsteiner / L'Héritage de Rameau (8-11)
Ensemble les Surprises, Louis-Noël Bestion de Camboulas and Yves Rechsteiner / L'Héritage de Rameau (12)
Ensemble les Surprises, Yves Rechsteiner and Louis-Noël Bestion Camboulas / L'Héritage de Rameau (13-17)
––––––––––––––––––––––––––––––––––––––––

DR Peak RMS Duration Track
––––––––––––––––––––––––––––––––––––––––
DR13 -2.13 dB -20.65 dB 7:03 04-Prelude et Rondeau
DR11 -17.84 dB -31.41 dB 1:37 05-Sarabande
DR11 -1.79 dB -17.66 dB 1:25 06-Musette
DR12 -2.37 dB -17.21 dB 1:18 07-Fanfare
DR12 -6.97 dB -22.84 dB 2:50 11-Forlanes
DR11 -5.05 dB -19.83 dB 1:05 12-Marche
DR13 -4.60 dB -23.42 dB 3:45 13-Trio et air tendre
DR12 -7.98 dB -24.03 dB 3:29 02-Concerto "Les Sauvages" (Arr. Yves Rechsteiner): II. Air tendre
DR14 -0.01 dB -18.34 dB 3:28 03-Concerto "Les Sauvages" (Arr. Yves Rechsteiner): III. Allegro. Les Sauvages
DR13 -0.72 dB -18.43 dB 5:35 08-Concerto "Les Enfers" (Arr. Yves Rechsteiner): I. Prelude et Air pour les Parques
DR12 -2.97 dB -20.85 dB 3:08 10-Concerto "Les Enfers" (Arr. Yves Rechsteiner): III. Contredanse
DR12 -1.86 dB -18.93 dB 4:08 01-Concerto "Les Sauvages" (Arr. Yves Rechsteiner): I. Allegro. Air pour les esclaves africains
DR10 -5.31 dB -18.08 dB 4:47 09-Concerto "Les Enfers" (Arr. Yves Rechsteiner): II. Tristes apprets
DR14 -2.28 dB -20.05 dB 4:07 14-Concerto "Les Amours" (Arr. Yves Rechsteiner): I. Rigaudon ou les Niais de Sologne
DR11 -6.67 dB -23.81 dB 2:37 15-Concerto "Les Amours" (Arr. Yves Rechsteiner): II. Air pour les Amours
DR10 -9.24 dB -22.94 dB 2:20 16-Concerto "Les Amours" (Arr. Yves Rechsteiner): III. Musette
DR12 -5.32 dB -21.58 dB 2:11 17-Concerto "Les Amours" (Arr. Yves Rechsteiner): IV. Tambourins
––––––––––––––––––––––––––––––––––––––––

Number of tracks: 17
Official DR value: DR12

Samplerate: 96000 Hz
Channels: 2
Bits per sample: 24
Bitrate: 2642 kbps
Codec: FLAC
================================================================================


Thanks to the Original customer.