Tags
Language
Tags
November 2022
Su Mo Tu We Th Fr Sa
30 31 1 2 3 4 5
6 7 8 9 10 11 12
13 14 15 16 17 18 19
20 21 22 23 24 25 26
27 28 29 30 1 2 3

La Lira di Orfeo - Aci, Galatea e Polifemo, HWV 72 (Reconstr. R. Pe & F. Longo) (2021) [Official Digital Download 24/96]

Posted By: pyatak
La Lira di Orfeo - Aci, Galatea e Polifemo, HWV 72 (Reconstr. R. Pe & F. Longo) (2021) [Official Digital Download 24/96]

La Lira di Orfeo - Aci, Galatea e Polifemo, HWV 72 (Reconstr. R. Pe & F. Longo) (2021) [Official Digital Download 24/96]
FLAC (tracks) 24-bit/96 kHz | Front Cover | Time - 01:23:02 minutes | 1,49 GB
Classical | Label: Glossa, Official Digital Download

For a production at the King's Theatre, Handel had created a mixed version of his Italian serenata Aci, Galatea e Polifemo HWV 72 and the English masque Acis and Galatea HWV 49a, which was performed semi-staged several times in 1732 with a star cast (including Senesino) to great acclaim. For today's ears, the musically attractive version HWV 49b suffers not least from the mixture of English and Italian text. In keeping with Handel's intentions, a purely Italian version was created here with additions from Italian works by the composer. The result is as convincing musically as it is scenically and would have deserved its own number in the catalogue of works.

TRACKLIST

01. La Lira di Orfeo - Ouverture
02. Andrea Mastroni - Mi palpita il cor
03. Andrea Mastroni - Affano tiranno
04. Raffaele Pe - Sorge il dì
05. Raffaele Pe - Vanti, o cara
06. Raffaele Pe - Lontan da te
07. Giuseppina Bridelli - Se di perle un tesoro
08. Giuseppina Bridelli - Sforzano a piangere
09. Raffaele Pe - Ma qual orrido suono
10. Andrea Mastroni - Ferito son d'amore
11. Andrea Mastroni - Deh lascia, o Polifemo
12. Giuseppina Bridelli - Benché tuoni
13. Andrea Mastroni - Cadrai depressa e vinta
14. Andrea Mastroni - Non sempre, no, crudele
15. Andrea Mastroni - Folle, quanto mi rido
16. Raffaele Pe - Dell'aquila l'artigli
17. Raffaele Pe - Meglio spiega i tuoi sensi
18. Raffaele Pe - Proverà lo sdegno mio
19. Giuseppina Bridelli - Ingrata, se mi nieghi
20. Andrea Mastroni - Fra l'ombre e gli orrori
21. Raffaele Pe - Ah, crude stelle
22. Raffaele Pe - Qui l'augel da pianta in pianta
23. Giuseppina Bridelli - Giunsi alfin mio tesoro
24. Giuseppina Bridelli - Se m'ami, o caro
25. Andrea Mastroni - Qui sull'alto del monte
26. Raffaele Pe - Cara, sino i tormenti
27. Raffaele Pe - Delfin vivrà sul monte
28. Raffaele Pe - Oh Dei
29. Raffaele Pe - Verso già l'alma
30. Giuseppina Bridelli - Misera, e dove sono?
31. Giuseppina Bridelli - Del mar fra l'onde
32. Andrea Mastroni - Ferma, ma già nel mare
33. Raffaele Pe - Chi ben ama ha per oggetti

foobar2000 1.6.2 / Dynamic Range Meter 1.1.1
log date: 2021-09-17 13:38:53

––––––––––––––––––––––––––––––––––––––––
Analyzed: Andrea Mastroni / Aci, Galatea e Polifemo, HWV 72 (Reconstr. R. Pe & F. Longo) (1-10)
Giuseppina Bridelli / Aci, Galatea e Polifemo, HWV 72 (Reconstr. R. Pe & F. Longo) (11-18)
La Lira di Orfeo / Aci, Galatea e Polifemo, HWV 72 (Reconstr. R. Pe & F. Longo) (19)
Raffaele Pe / Aci, Galatea e Polifemo, HWV 72 (Reconstr. R. Pe & F. Longo) (20-33)
––––––––––––––––––––––––––––––––––––––––

DR Peak RMS Duration Track
––––––––––––––––––––––––––––––––––––––––
DR16 -0.44 dB -20.81 dB 2:25 02-Mi palpita il cor
DR16 0.00 dB -21.31 dB 4:53 03-Affano tiranno
DR16 0.00 dB -20.59 dB 3:21 10-Ferito son d'amore
DR14 -1.02 dB -19.66 dB 0:55 11-Deh lascia, o Polifemo
DR14 -6.54 dB -23.65 dB 0:44 13-Cadrai depressa e vinta
DR16 -0.67 dB -22.91 dB 4:45 14-Non sempre, no, crudele
DR13 -2.70 dB -23.44 dB 0:32 15-Folle, quanto mi rido
DR17 -4.29 dB -25.85 dB 5:47 20-Fra l'ombre e gli orrori
DR13 -7.42 dB -25.93 dB 0:14 25-Qui sull'alto del monte
DR17 0.00 dB -23.30 dB 3:00 32-Ferma, ma già nel mare
DR9 -3.02 dB -19.70 dB 0:30 07-Se di perle un tesoro
DR15 -2.21 dB -20.69 dB 6:28 08-Sforzano a piangere
DR13 -0.24 dB -18.04 dB 2:25 12-Benché tuoni
DR13 -7.02 dB -24.47 dB 0:36 19-Ingrata, se mi nieghi
DR14 0.00 dB -19.34 dB 0:31 23-Giunsi alfin mio tesoro
DR15 0.00 dB -22.03 dB 4:26 24-Se m'ami, o caro
DR13 -2.23 dB -20.55 dB 0:58 30-Misera, e dove sono?
DR13 0.00 dB -18.29 dB 2:14 31-Del mar fra l'onde
DR14 -2.18 dB -20.50 dB 3:59 01-Ouverture
DR14 -0.10 dB -18.30 dB 4:04 04-Sorge il dì
DR14 -1.36 dB -22.07 dB 0:48 05-Vanti, o cara
DR13 0.00 dB -18.92 dB 3:34 06-Lontan da te
DR14 -0.38 dB -19.92 dB 2:21 09-Ma qual orrido suono
DR14 0.00 dB -20.26 dB 3:31 16-Dell'aquila l'artigli
DR12 -0.09 dB -18.17 dB 0:27 17-Meglio spiega i tuoi sensi
DR13 0.00 dB -17.31 dB 1:50 18-Proverà lo sdegno mio
DR12 -6.27 dB -25.02 dB 0:32 21-Ah, crude stelle
DR15 0.00 dB -19.90 dB 8:40 22-Qui l'augel da pianta in pianta
DR11 -3.20 dB -20.03 dB 0:30 26-Cara, sino i tormenti
DR12 0.00 dB -15.87 dB 2:06 27-Delfin vivrà sul monte
DR17 -4.14 dB -24.08 dB 0:06 28-Oh Dei
DR15 -2.75 dB -23.85 dB 4:43 29-Verso già l'alma
DR12 -0.04 dB -15.73 dB 1:12 33-Chi ben ama ha per oggetti
––––––––––––––––––––––––––––––––––––––––

Number of tracks: 33
Official DR value: DR14

Samplerate: 96000 Hz
Channels: 2
Bits per sample: 24
Bitrate: 2634 kbps
Codec: FLAC
================================================================================



Thanks to the Original customer.