Tags
Language
Tags

Lana Del Rey - Blue Banisters (2021) [Official Digital Download]

Posted By: pyatak
Lana Del Rey - Blue Banisters (2021) [Official Digital Download]

Lana Del Rey - Blue Banisters (2021) [Official Digital Download]
FLAC (tracks) 24-bit/44.1 kHz | Front Cover | Time - 61:52 minutes | 638 MB
Indie Pop | Label: Polydor Records, Official Digital Download

Blue Banisters is the upcoming eighth studio album by American singer-songwriter Lana Del Rey. It is scheduled to be released on October 22, 2021 through Interscope and Polydor Records. The album was preceded by four singles: the title track, "Text Book", "Wildflower Wildfire" and "Arcadia".

TRACKLIST

1. Lana Del Rey - Text Book
2. Lana Del Rey - Blue Banisters
3. Lana Del Rey - Arcadia
4. Lana Del Rey - Interlude - The Trio
5. Lana Del Rey - Black Bathing Suit
6. Lana Del Rey - If You Lie Down With Me
7. Lana Del Rey - Beautiful
8. Lana Del Rey - Violets for Roses
9. Lana Del Rey - Dealer
10. Lana Del Rey - Thunder
11. Lana Del Rey - Wildflower Wildfire
12. Lana Del Rey - Nectar of the Gods
13. Lana Del Rey - Living Legend
14. Lana Del Rey - Cherry Blossom
15. Lana Del Rey - Sweet Carolina

foobar2000 1.6.2 / Dynamic Range Meter 1.1.1
log date: 2021-10-21 14:26:18

––––––––––––––––––––––––––––––––––––––––
Analyzed: Lana Del Rey / Blue Banisters
––––––––––––––––––––––––––––––––––––––––

DR Peak RMS Duration Track
––––––––––––––––––––––––––––––––––––––––
DR5 0.00 dB -8.26 dB 5:03 01-Text Book
DR10 0.00 dB -11.96 dB 4:54 02-Blue Banisters
DR8 0.00 dB -11.69 dB 4:23 03-Arcadia
DR8 0.00 dB -12.08 dB 1:16 04-Interlude - The Trio
DR6 0.00 dB -9.42 dB 5:18 05-Black Bathing Suit
DR6 0.00 dB -8.47 dB 4:25 06-If You Lie Down With Me
DR7 0.00 dB -10.27 dB 3:36 07-Beautiful
DR6 0.00 dB -8.30 dB 4:15 08-Violets for Roses
DR6 0.00 dB -8.03 dB 4:34 09-Dealer
DR5 0.00 dB -7.63 dB 4:19 10-Thunder
DR5 0.00 dB -9.41 dB 4:48 11-Wildflower Wildfire
DR8 0.00 dB -11.14 dB 4:20 12-Nectar of the Gods
DR7 0.00 dB -9.45 dB 4:01 13-Living Legend
DR8 0.00 dB -11.24 dB 3:18 14-Cherry Blossom
DR6 0.00 dB -10.37 dB 3:22 15-Sweet Carolina
––––––––––––––––––––––––––––––––––––––––

Number of tracks: 15
Official DR value: DR7

Samplerate: 44100 Hz
Channels: 2
Bits per sample: 24
Bitrate: 1338 kbps
Codec: FLAC
================================================================================



Thanks to the Original customer.