Subcategories

L'arte del mondo - Salieri: La scuola de' gelosi (2016) [Official Digital Download]

Posted By: SERTiL
L'arte del mondo - Salieri: La scuola de' gelosi (2016) [Official Digital Download]

L'arte del mondo - Salieri: La scuola de' gelosi (2016)
FLAC (tracks) 24-bit/48 kHz | Time - 161:18 minutes | 1.59 GB
Studio Master, Official Digital Download | Artwork: Digital booklet

In its day La scuola de’ gelosi (1778) was one of the best-known comic operas by Antonio Salieri (1750–1825), remaining a box-office hit for decades. All the more astonishing is the fact that it could sink into obscurity. Even Goethe was excited by this masterpiece: “The opera is the audience’s favourite, and the audience is right. It contains an astonishing richness and variety, and the subject is treated with the most exquisite taste. I was moved by every aria.” In the wake of its world premiere in Venice in 1778, La scuola de’ gelosi was performed in opera houses all over Europe, from Dresden, Vienna, Prague and Paris to cities as far away as London and St Petersburg, before it passed into near-oblivion. Not until well over two centuries later did Werner Ehrhardt and his ensemble, l’arte del mondo, rediscover this musical treasure. Their world-premiere recording affords impressive proof of Salieri’s abilities and explores his shrewd delineation of character, whereby jealousy repeatedly rears its head in ever-new guises.

TRACKLIST

Antonio Salieri (1750-1825)

CD1
01. La scuola de' gelosi: Act I: Sinfonia
02. La scuola de' gelosi: Act I: Scena 1, Introduzione: "Zitto! Alcun sentir mi parve"
03. La scuola de' gelosi: Act I: Scena 1, Recitativo: "Il padron!"
04. La scuola de' gelosi: Act I: No. 1, Aria: "Gelosia d'amore"
05. La scuola de' gelosi: Act I: Scena 2: "Già male si consiglia"
06. La scuola de' gelosi: Act I: No. 2, Aria: "Una donna che affetto non sente"
07. La scuola de' gelosi: Act I: Scena 3, Recitativo: "A burlami io la sfido"
08. La scuola de' gelosi: Act I: Scena 4, Recitativo: "Signora padroncina"
09. La scuola de' gelosi: Act I: Scena 5, Recitativo: "Signorina… Signore"
10. La scuola de' gelosi: Act I: No. 3, Duettino: "Al gran Can di Tartaria"
11. La scuola de' gelosi: Act I: No. 4, Cavatina: "Ah, non è ver che in seno"
12. La scuola de' gelosi: Act I: Scena 6, Recitativo: "Io serventi non ho"
13. La scuola de' gelosi: Act I: No. 5, Cavatina: "A me par che il mondo sia"
14. La scuola de' gelosi: Act I: Scena 6, Recitativo: "Ma quale agli occhi miei"
15. La scuola de' gelosi: Act I: Scena 7, Recitativo: "Madama… Vi son serva"
16. La scuola de' gelosi: Act I: No. 6, Terzetto: "Eh via, saggia Penelope"
17. La scuola de' gelosi: Act I: Scena 8, Recitativo: "Poverina! Ella v'ama"
18. La scuola de' gelosi: Act I: Scena 9, Recitativo: "Oh povera Contessa!"
19. La scuola de' gelosi: Act I: No. 7, Aria: "Ah, non siate ognor sì facili"
20. La scuola de' gelosi: Act I: Scena 10, Recitativo: "Chiudermi in casa!"
21. La scuola de' gelosi: Act I: Scena 11, Recitativo: "Il Conte spera d"introdursi in casa"
22. La scuola de' gelosi: Act I: Scene 12, Recitativo: "Signori, con permesso"
23. La scuola de' gelosi: Act I: No. 8, Aria: "Fate buona compagnia"
24. La scuola de' gelosi: Act I: Scena 13, Recitativo: "Una finta querela"
25. La scuola de' gelosi: Act I: Scena 14, Recitativo: "Converrà ch'io la cerchi"
26. La scuola de' gelosi: Act I: No. 9, Aria: "Chi può vedere oppresso"
27. La scuola de' gelosi: Act I: Scena 15, Recitativo: "Brava! Brava! Ha ragione il signor Conte"
28. La scuola de' gelosi: Act I: No. 10, Aria: "Se verrete a me vicino"
29. La scuola de' gelosi: Act I: Scena 16, Recitativo: "Polito! Vera moglie!"
30. La scuola de' gelosi: Act I: Scena 17, Recitativo: "Carlotta, la mantiglia"
31. La scuola de' gelosi: Act I: Scena 18, Recitativo: "Addio, bella Ernestina"
32. La scuola de' gelosi: Act I: Scena 19, Recitativo: "Chiudete ben, gelosi"
33. La scuola de' gelosi: Act I: Scena 20, Recitativo: "La donna quando vuol già ve la fa!"
34. La scuola de' gelosi: Act I: Scena 21, Recitativo: "Dimmi, tu, mio marito"
35. La scuola de' gelosi: Act I: No. 11, Aria: "Gelosia, dispetto e sdegno"

CD2
01. La scuola de' gelosi: Act I: Scena ultima, Recitativo: "Con mille smanie al core"
02. La scuola de' gelosi: Act I: Finale primo: "Son le donne sopraffine"
03. La scuola de' gelosi: Act II: Scena 1, Recitativo: "Sono a tavola ancora?"
04. La scuola de' gelosi: Act II: No. 12, Aria: "Il cor nel seno balzar mi sento"
05. La scuola de' gelosi: Act II: Scena 2, Recitativo: "Vammi a genio costei"
06. La scuola de' gelosi: Act II: No. 13, Aria: "Lumaca, giudizio!"
07. La scuola de' gelosi: Act II: Scena 3, Recitativo: "Tenente, è ben sciapito"
08. La scuola de' gelosi: Act II: No. 14, Duettino: "Quel visino è da ritratto"
09. La scuola de' gelosi: Act II: Scena 4, Recitativo: "Udite, Contessina"
10. La scuola de' gelosi: Act II: Scena 5, Recitativo: "Sarà bello il progetto"
11. La scuola de' gelosi: Act II: No. 15, Aria: "Chi vuol nella femmina"
12. La scuola de' gelosi: Act II: Scena 6, Recitativo: "Ricordati, Lumaca"
13. La scuola de' gelosi: Act II: No. 16, Aria: "Queste donne sussiegate"
14. La scuola de' gelosi: Act II: Scena 7, Recitativo: "Ti par ch'ella fremesse?"
15. La scuola de' gelosi: Act II: No. 17, Aria: "Adagio… allor potrei"
16. La scuola de' gelosi: Act II: No. 18, Cavatina: "Cattivo segno, sposine amabili"
17. La scuola de' gelosi: Act II: Scena 9, Recitativo: "Infido! Un ritrattino!"
18. La scuola de' gelosi: Act II: Scena 10, Recitativo: "Fate quel che vi dissi"
19. La scuola de' gelosi: Act II: No. 19, Quintetto: "Ah! La rabbia mi divora"

CD3
01. La scuola de' gelosi: Act II: Scena 10, Recitativo: "Signori, con permesso"
02. La scuola de' gelosi: Act II: Scena 11, Recitativo: "A me nasce il sospetto"
03. La scuola de' gelosi: Act II: Scena 12, Recitativo: "Or la cagion capisco"
04. La scuola de' gelosi: Act II: No. 20, Aria: "Più sereni quegli occhi volgete"
05. La scuola de' gelosi: Act II: Scena 13, Recitativo: "Ah, traditor!"
06. La scuola de' gelosi: Act II: Scena 14, Recitativo: "Cosa comanda?"
07. La scuola de' gelosi: Act II: Scena 15, Accompagnato: "Or ei con Ernestina"
08. La scuola de' gelosi: Act II: No. 21, Aria: "Ah, sia già de' miei sospiri"
09. La scuola de' gelosi: Act II: Scena 16, Recitativo: "E il Conte ancor non torna"
10. La scuola de' gelosi: Act II: Scena ultima, Recitativo: "Amico traditore!"
11. La scuola de' gelosi: Act II: Finale secondo: "Mia bella Ernestina"

PERSONNEL
Francesca Lombardi Mazzulli, soprano (Gräfin Bandiera)
Emanuele d’Aguanno, tenor (Graf Bandiera)
Federico Sacchi, bass (Blasio)
Roberta Mameli, soprano (Ernestina)
Florian Götz, tenor (Lumaca)
Milena Sorti, soprano (Carlotta)
Patrick Vogel, bass (Der Lieutenant)
L’arte del mondo
Werner Ehrhardt, direction

foobar2000 1.3.7 / Dynamic Range Meter 1.1.1
log date: 2017-09-08 23:35:29

––––––––––––––––––––––––––––––––––––––––
Analyzed: L'arte del mondo / Salieri: La scuola de' gelosi
––––––––––––––––––––––––––––––––––––––––

DR Peak RMS Duration Track
––––––––––––––––––––––––––––––––––––––––
DR13 -6.89 dB -25.78 dB 3:08 01-La scuola de' gelosi: Act I: Sinfonia
DR14 -3.09 dB -23.71 dB 2:29 02-La scuola de' gelosi: Act I: Scena 1, Introduzione: "Zitto! Alcun sentir mi parve"
DR13 -1.42 dB -28.17 dB 1:56 03-La scuola de' gelosi: Act I: Scena 1, Recitativo: "Il padron!"
DR12 -4.77 dB -24.24 dB 2:06 04-La scuola de' gelosi: Act I: No. 1, Aria: "Gelosia d'amore"
DR15 -0.72 dB -27.62 dB 1:37 05-La scuola de' gelosi: Act I: Scena 2: "Già male si consiglia"
DR14 -0.50 dB -21.91 dB 2:42 06-La scuola de' gelosi: Act I: No. 2, Aria: "Una donna che affetto non sente"
DR14 -7.68 dB -26.93 dB 0:37 07-La scuola de' gelosi: Act I: Scena 3, Recitativo: "A burlami io la sfido"
DR14 -2.77 dB -23.36 dB 1:39 08-La scuola de' gelosi: Act I: Scena 4, Recitativo: "Signora padroncina"
DR14 -0.69 dB -22.21 dB 1:00 09-La scuola de' gelosi: Act I: Scena 5, Recitativo: "Signorina… Signore"
DR16 -0.50 dB -22.04 dB 2:22 10-La scuola de' gelosi: Act I: No. 3, Duettino: "Al gran Can di Tartaria"
DR12 -4.61 dB -23.49 dB 2:37 11-La scuola de' gelosi: Act I: No. 4, Cavatina: "Ah, non è ver che in seno"
DR14 -5.33 dB -26.71 dB 1:05 12-La scuola de' gelosi: Act I: Scena 6, Recitativo: "Io serventi non ho"
DR13 -6.87 dB -24.46 dB 2:52 13-La scuola de' gelosi: Act I: No. 5, Cavatina: "A me par che il mondo sia"
DR16 -5.38 dB -26.93 dB 1:08 14-La scuola de' gelosi: Act I: Scena 6, Recitativo: "Ma quale agli occhi miei"
DR15 -7.45 dB -26.25 dB 1:32 15-La scuola de' gelosi: Act I: Scena 7, Recitativo: "Madama… Vi son serva"
DR15 -0.50 dB -20.87 dB 5:22 16-La scuola de' gelosi: Act I: No. 6, Terzetto: "Eh via, saggia Penelope"
DR16 -6.73 dB -27.16 dB 1:26 17-La scuola de' gelosi: Act I: Scena 8, Recitativo: "Poverina! Ella v'ama"
DR14 -7.93 dB -26.28 dB 0:49 18-La scuola de' gelosi: Act I: Scena 9, Recitativo: "Oh povera Contessa!"
DR14 -4.31 dB -23.36 dB 3:25 19-La scuola de' gelosi: Act I: No. 7, Aria: "Ah, non siate ognor sì facili"
DR9 -2.11 dB -25.62 dB 0:38 20-La scuola de' gelosi: Act I: Scena 10, Recitativo: "Chiudermi in casa!"
DR13 -2.36 dB -26.76 dB 1:27 21-La scuola de' gelosi: Act I: Scena 11, Recitativo: "Il Conte spera d"introdursi in casa"
DR16 -6.18 dB -26.60 dB 2:15 22-La scuola de' gelosi: Act I: Scene 12, Recitativo: "Signori, con permesso"
DR14 -4.24 dB -24.20 dB 3:38 23-La scuola de' gelosi: Act I: No. 8, Aria: "Fate buona compagnia"
DR14 -2.41 dB -24.50 dB 0:57 24-La scuola de' gelosi: Act I: Scena 13, Recitativo: "Una finta querela"
DR15 -5.08 dB -26.68 dB 1:50 25-La scuola de' gelosi: Act I: Scena 14, Recitativo: "Converrà ch'io la cerchi"
DR13 -3.19 dB -21.21 dB 3:13 26-La scuola de' gelosi: Act I: No. 9, Aria: "Chi può vedere oppresso"
DR14 -6.41 dB -25.06 dB 1:09 27-La scuola de' gelosi: Act I: Scena 15, Recitativo: "Brava! Brava! Ha ragione il signor Conte"
DR15 -0.80 dB -21.52 dB 3:18 28-La scuola de' gelosi: Act I: No. 10, Aria: "Se verrete a me vicino"
DR14 -6.08 dB -26.38 dB 0:58 29-La scuola de' gelosi: Act I: Scena 16, Recitativo: "Polito! Vera moglie!"
DR15 -2.58 dB -23.90 dB 1:08 30-La scuola de' gelosi: Act I: Scena 17, Recitativo: "Carlotta, la mantiglia"
DR13 -7.28 dB -24.92 dB 0:46 31-La scuola de' gelosi: Act I: Scena 18, Recitativo: "Addio, bella Ernestina"
DR15 -8.63 dB -28.21 dB 0:46 32-La scuola de' gelosi: Act I: Scena 19, Recitativo: "Chiudete ben, gelosi"
DR16 -2.94 dB -24.49 dB 2:08 33-La scuola de' gelosi: Act I: Scena 20, Recitativo: "La donna quando vuol già ve la fa!"
DR15 -8.06 dB -26.91 dB 1:16 34-La scuola de' gelosi: Act I: Scena 21, Recitativo: "Dimmi, tu, mio marito"
DR14 -0.51 dB -20.41 dB 3:54 35-La scuola de' gelosi: Act I: No. 11, Aria: "Gelosia, dispetto e sdegno"
DR14 -7.54 dB -28.95 dB 1:19 01-La scuola de' gelosi: Act I: Scena ultima, Recitativo: "Con mille smanie al core"
DR17 -0.70 dB -22.02 dB 12:50 02-La scuola de' gelosi: Act I: Finale primo: "Son le donne sopraffine"
DR15 -9.93 dB -31.59 dB 1:55 03-La scuola de' gelosi: Act II: Scena 1, Recitativo: "Sono a tavola ancora?"
DR13 -6.35 dB -23.55 dB 2:26 04-La scuola de' gelosi: Act II: No. 12, Aria: "Il cor nel seno balzar mi sento"
DR14 -11.56 dB -29.05 dB 0:34 05-La scuola de' gelosi: Act II: Scena 2, Recitativo: "Vammi a genio costei"
DR14 -4.07 dB -25.17 dB 2:16 06-La scuola de' gelosi: Act II: No. 13, Aria: "Lumaca, giudizio!"
DR17 -1.40 dB -25.81 dB 7:11 07-La scuola de' gelosi: Act II: Scena 3, Recitativo: "Tenente, è ben sciapito"
DR17 -1.13 dB -24.20 dB 2:46 08-La scuola de' gelosi: Act II: No. 14, Duettino: "Quel visino è da ritratto"
DR14 -5.73 dB -26.73 dB 1:42 09-La scuola de' gelosi: Act II: Scena 4, Recitativo: "Udite, Contessina"
DR14 -8.89 dB -27.20 dB 1:32 10-La scuola de' gelosi: Act II: Scena 5, Recitativo: "Sarà bello il progetto"
DR15 -3.32 dB -23.58 dB 3:21 11-La scuola de' gelosi: Act II: No. 15, Aria: "Chi vuol nella femmina"
DR16 -4.10 dB -26.48 dB 3:16 12-La scuola de' gelosi: Act II: Scena 6, Recitativo: "Ricordati, Lumaca"
DR14 -0.70 dB -19.94 dB 2:46 13-La scuola de' gelosi: Act II: No. 16, Aria: "Queste donne sussiegate"
DR12 -10.76 dB -28.49 dB 0:52 14-La scuola de' gelosi: Act II: Scena 7, Recitativo: "Ti par ch'ella fremesse?"
DR14 -3.11 dB -23.28 dB 3:29 15-La scuola de' gelosi: Act II: No. 17, Aria: "Adagio… allor potrei"
DR13 -2.76 dB -19.73 dB 1:04 16-La scuola de' gelosi: Act II: No. 18, Cavatina: "Cattivo segno, sposine amabili"
DR13 -6.83 dB -25.99 dB 0:43 17-La scuola de' gelosi: Act II: Scena 9, Recitativo: "Infido! Un ritrattino!"
DR16 -7.27 dB -28.26 dB 1:46 18-La scuola de' gelosi: Act II: Scena 10, Recitativo: "Fate quel che vi dissi"
DR15 -1.75 dB -21.19 dB 6:18 19-La scuola de' gelosi: Act II: No. 19, Quintetto: "Ah! La rabbia mi divora"
DR12 -8.58 dB -28.08 dB 0:22 01-La scuola de' gelosi: Act II: Scena 10, Recitativo: "Signori, con permesso"
DR14 -0.84 dB -25.60 dB 0:45 02-La scuola de' gelosi: Act II: Scena 11, Recitativo: "A me nasce il sospetto"
DR14 -6.80 dB -26.12 dB 1:01 03-La scuola de' gelosi: Act II: Scena 12, Recitativo: "Or la cagion capisco"
DR13 -4.51 dB -23.48 dB 3:09 04-La scuola de' gelosi: Act II: No. 20, Aria: "Più sereni quegli occhi volgete"
DR13 -7.53 dB -24.33 dB 0:21 05-La scuola de' gelosi: Act II: Scena 13, Recitativo: "Ah, traditor!"
DR14 -5.20 dB -24.30 dB 1:28 06-La scuola de' gelosi: Act II: Scena 14, Recitativo: "Cosa comanda?"
DR14 -3.95 dB -24.47 dB 2:16 07-La scuola de' gelosi: Act II: Scena 15, Accompagnato: "Or ei con Ernestina"
DR14 -0.70 dB -19.71 dB 6:09 08-La scuola de' gelosi: Act II: No. 21, Aria: "Ah, sia già de' miei sospiri"
DR15 -4.76 dB -25.53 dB 1:04 09-La scuola de' gelosi: Act II: Scena 16, Recitativo: "E il Conte ancor non torna"
DR15 -11.01 dB -28.95 dB 0:51 10-La scuola de' gelosi: Act II: Scena ultima, Recitativo: "Amico traditore!"
DR16 -0.70 dB -21.58 dB 16:56 11-La scuola de' gelosi: Act II: Finale secondo: "Mia bella Ernestina"
––––––––––––––––––––––––––––––––––––––––

Number of tracks: 65
Official DR value: DR14

Samplerate: 48000 Hz
Channels: 2
Bits per sample: 24
Bitrate: 1409 kbps
Codec: FLAC
================================================================================


Thanks to the Original customer.