Leonard Bernstein - Beethoven: Piano Concerto No. 1 in C Major, Op. 15 - Rachmaninoff (Remastered) (2017) [24/192]

Posted By: SERTiL
Leonard Bernstein - Beethoven: Piano Concerto No. 1 in C Major, Op. 15 - Rachmaninoff (Remastered) (2017) [24/192]

Leonard Bernstein - Beethoven: Piano Concerto No. 1 in C Major, Op. 15 - Rachmaninoff (Remastered) (2017)
FLAC (tracks) 24-bit/192 kHz | Time - 74:28 minutes | 3.07 GB
Studio Master, Official Digital Download | Artwork: Front Cover

On the eve of his centenary in 2018, Sony Classical releases the most important collection, Leonard Bernstein’s classic American Columbia recordings, remastered from their original 2- and multi-track analogue tapes. This has allowed for the creation of a natural balance (for example, between the orchestra and solo instruments) that brings the quality of these half-century-old recordings, excellent for their time, up to the standards of today’s audiophiles. In addition, there has been a meticulous restoration of some earlier masterings in which LP surface noise was too rigorously eliminated at the expense of the original brilliance.

Tracklist:

Ludwig van Beethoven (1770-1827)

01. Piano Concerto No. 1 in C Major, Op. 15 (Remastered): I. Allegro con brio
02. Piano Concerto No. 1 in C Major, Op. 15 (Remastered): II. Largo
03. Piano Concerto No. 1 in C Major, Op. 15 (Remastered): III. Rondo. Allegro scherzando

Sergey Vassilievich Rachmaninov (1873-1943)

04. Piano Concerto No. 2 in C Minor, Op. 18 (Remastered): I. Moderato
05. Piano Concerto No. 2 in C Minor, Op. 18 (Remastered): II. Adagio sostenuto
06. Piano Concerto No. 2 in C Minor, Op. 18 (Remastered): III. Allegro scherzando

Personnel:
New York Philharmonic
Leonard Bernstein (piano, conductor)
Philippe Entremont (piano)

foobar2000 1.3.7 / Dynamic Range Meter 1.1.1
log date: 2017-12-20 18:46:51

––––––––––––––––––––––––––––––––––––––––
Analyzed: Leonard Bernstein / Beethoven: Piano Concerto No. 1 in C Major, Op. 15 - Rachmaninoff: Piano Concerto No. 2 in C Minor, Op. 18 (Remastered)
––––––––––––––––––––––––––––––––––––––––

DR Peak RMS Duration Track
––––––––––––––––––––––––––––––––––––––––
DR13 -0.32 dB -18.92 dB 18:32 01-Piano Concerto No. 1 in C Major, Op. 15 (Remastered): I. Allegro con brio
DR13 -1.60 dB -20.86 dB 11:20 02-Piano Concerto No. 1 in C Major, Op. 15 (Remastered): II. Largo
DR12 -0.85 dB -18.02 dB 8:38 03-Piano Concerto No. 1 in C Major, Op. 15 (Remastered): III. Rondo. Allegro scherzando
DR11 -1.56 dB -17.17 dB 10:50 04-Piano Concerto No. 2 in C Minor, Op. 18 (Remastered): I. Moderato
DR13 -2.15 dB -21.09 dB 13:18 05-Piano Concerto No. 2 in C Minor, Op. 18 (Remastered): II. Adagio sostenuto
DR13 -0.32 dB -17.89 dB 11:54 06-Piano Concerto No. 2 in C Minor, Op. 18 (Remastered): III. Allegro scherzando
––––––––––––––––––––––––––––––––––––––––

Number of tracks: 6
Official DR value: DR13

Samplerate: 192000 Hz
Channels: 2
Bits per sample: 24
Bitrate: 5901 kbps
Codec: FLAC
================================================================================


Thanks to the Original customer.