Ensemble Dulcis Melodia & Jean Francois Haberer - Les Musiciens de Leopold (2018) [Official Digital Download]

Posted By: SERTiL
Ensemble Dulcis Melodia & Jean Francois Haberer - Les Musiciens de Leopold (2018) [Official Digital Download]

Ensemble Dulcis Melodia & Jean Francois Haberer - Les Musiciens de Leopold (2018)
FLAC (tracks) 24-bit/44.1 kHz | Time - 56:55 minutes | 555 MB
Studio Master, Official Digital Download | Artwork: Digital Booklet

As part of their work focusing on enhancing the baroque music of the Rhineland, Dulcis Melodia presents an original program that reveals for the first time one of the most prestigious chapters of the baroque art in this area: Saverne at the time of the Archduke Leopold of Austria.

The bishop of Strasbourg was a committed defender of the Alsatian musical life and contributed to galvanize it. Indeed, between 1615 and 1625, he invited three brilliant composers of the Court of Austria, Vincenz Jelich, Bernardin Wolck and Reimundo Ballestra, to Saverne. Those three musicians fit in perfectly with the artistic trend of that time when Italy was on top of the musical life.

Tracklist:

Vincent Jelich (1596 - 1636)

Parnassia Militia
1 Probasti Domine 03:25
2 Domine Dominus noster 02:44
3 Ricercar primo 02:02
4 Oculi tui Deus 02:20
5 Quae est ista 03:45
6 Ricercar quarto 03:21
7 Deus qui nos 02:39
8 Florete Flores 02:07

Raimundo Balestra (?)

9 Canzon a 4 04:01

Vincent Jelich (1596 - 1636)

10 Parnassia Militia: Viri sancti 02:12

Bernhardin Wolck (?)

11Canzon 02:07
12 Salve Regina 03:38
13 Fuga: Stabat ad lignum crucis 01:57

Vincent Jelich (1596 - 1636)

14 Parnassia Militia: Audivi vocem 02:57
15 Parnassia Militia: Bone Jesu 02:43

Raimundo Balestra (?)

16 Salve aeterni 05:23
17 Canzon a 8 04:51
18 Cantate domino 04:43

Personnel:
Ensemble Dulcis Melodia
Jean Francois Haberer, organ, direction

foobar2000 1.3.7 / Dynamic Range Meter 1.1.1
log date: 2018-01-21 15:29:20

––––––––––––––––––––––––––––––––––––––––
Analyzed: Ensemble Dulcis Melodia and Jean Francois Haberer / Les Musiciens de Leopold (1-6)
Ensemble Dulcis Melodia, Jean Francois Haberer and Anne-Sophie Waris / Les Musiciens de Leopold (7)
Ensemble Dulcis Melodia, Jean Francois Haberer and Frédéric Schwab / Les Musiciens de Leopold (8)
Ensemble Dulcis Melodia, Jean Francois Haberer and Sarah Gendrot / Les Musiciens de Leopold (9)
Ensemble Dulcis Melodia, Jean Francois Haberer, Frédéric Schwab and Sylvain Kuntz / Les Musiciens de Leopold (10)
Ensemble Dulcis Melodia, Jean Francois Haberer, Sarah Gendrot and Anne-Sophie Waris / Les Musiciens de Leopold (11-14)
Ensemble Dulcis Melodia, Jean Francois Haberer, Sarah Gendrot, Anne-Sophie Waris, Frédéric Schwab, Hervé Guehl and Sylvain Kuntz / Les Musiciens de Leopold (15)
Ensemble Dulcis Melodia, Jean Francois Haberer, Sarah Gendrot, Frédéric Schwab, Hervé Guehl and Sylvain Kuntz / Les Musiciens de Leopold (16-18)
––––––––––––––––––––––––––––––––––––––––

DR Peak RMS Duration Track
––––––––––––––––––––––––––––––––––––––––
DR10 -1.23 dB -14.81 dB 2:02 03-Parnassia Militia: Ricercar primo
DR11 -1.80 dB -14.69 dB 3:21 06-Parnassia Militia: Ricercar quarto
DR11 -0.20 dB -13.55 dB 4:02 09-Canzon a 4
DR11 -3.59 dB -18.46 dB 2:08 11-Canzon
DR9 -5.39 dB -17.23 dB 1:57 13-Fuga: Stabat ad lignum crucis
DR12 -0.60 dB -16.04 dB 4:51 17-Canzon a 8
DR12 -0.74 dB -16.52 dB 2:12 10-Parnassia Militia: Viri sancti
DR11 -1.29 dB -18.29 dB 2:08 08-Parnassia Militia: Florete Flores
DR13 -0.76 dB -18.22 dB 2:21 04-Parnassia Militia: Oculi tui Deus
DR11 -1.58 dB -15.71 dB 2:39 07-Parnassia Militia: Deus qui nos
DR11 -1.40 dB -15.00 dB 3:25 01-Parnassia Militia: Probasti Domine
DR13 -1.33 dB -18.43 dB 3:45 05-Parnassia Militia: Quae est ista
DR13 -0.65 dB -18.00 dB 3:38 12-Salve Regina
DR12 -0.77 dB -17.23 dB 2:44 15-Parnassia Militia: Bone Jesu
DR10 -0.60 dB -14.20 dB 4:43 18-Cantate domino
DR10 -0.20 dB -13.58 dB 2:44 02-Parnassia Militia: Domine Dominus noster
DR12 -0.60 dB -15.47 dB 2:58 14-Parnassia Militia: Audivi vocem
DR10 -0.60 dB -14.99 dB 5:24 16-Salve aeterni
––––––––––––––––––––––––––––––––––––––––

Number of tracks: 18
Official DR value: DR11

Samplerate: 44100 Hz
Channels: 2
Bits per sample: 24
Bitrate: 1362 kbps
Codec: FLAC
================================================================================


Thanks to the Original customer.