Lou Reed - Ecstasy (2000/2015) [TR24][OF]

Posted By: SERTiL
Lou Reed - Ecstasy (2000/2015) [TR24][OF]

Lou Reed - Ecstasy
Rock | FLAC (tracks) 24-bit/192 kHz | 77:34 min | 2.88 GB | Front Cover
Label: Rhino/Warner Bros. | Tracks: 14 | Rls.date: 2000/2015

Never let it be said that Lou Reed has lost the ability to surprise his audience; who would have thought that at the age of 58, on his first album of the new millennium, Reed would offer us an 18-minute guitar distortion workout with lyrics abut kinky sex, dangerous drugs, and (here's the surprise) imagining what it would be like to be a possum? For the most part, Ecstasy finds Reed obsessed with love and sex, though (as you might expect) his take on romance is hardly rosy ("Paranoia Key of E," "Mad," and "Tatters" all document a relationship at the point of collapse, while "Baton Rouge" is an eccentric but moving elegy for a love that didn't last) and Eros is usually messy ("White Prism"), obsessive ("Ecstasy"), or unhealthy and perverse ("Rock Minuet"). Reed genuinely seems to be stretching towards new lyrical and musical ground here, but while some of his experiments work, several pointedly do not, with the epic "Like a Possum" only the album's most spectacular miscalculation. Still, Reed and producer Hal Wilner take some chances with the arrangements that pay off, particularly the subtle horn charts that dot several songs, and Reed's superb rhythm section (Fernando Saunders on bass and Tony "Thunder" Smith on drums) gives these songs a rock-solid foundation for the leader's guitar workouts. As Reed and his band hit fifth gear on the album's rousing closer, "Big Sky," he once again proves that even his uneven works include a few songs you'll certainly want to have in your collection – as long as they're not about possums. Review by Mark Deming

TRACKLIST
1. Paranoia Key Of E 04:31
2. Mystic Child 05:03
3. Mad 04:29
4. Ecstasy 04:26
5. Modern Dance 04:10
6. Tatters 05:55
7. Future Farmers Of America 03:02
8. Turning Time Around 04:22
9. White Prism 04:00
10. Rock Minuet 06:56
11. Baton Rouge 04:55
12. Like A Possum 18:03
13. Rouge 01:01
14. Big Sky 06:35

foobar2000 1.3.7 / Замер динамического диапазона (DR) 1.1.1
Дата отчёта: 2017-01-22 22:01:48

––––––––––––––––––––––––––––––––––––––––
Анализ: Lou Reed / Ecstasy
––––––––––––––––––––––––––––––––––––––––

DR Пики RMS Продолжительность трека
––––––––––––––––––––––––––––––––––––––––
DR12 -0.10 дБ -13.41 дБ 4:31 01-Paranoia Key of E
DR11 -0.10 дБ -12.48 дБ 5:03 02-Mystic Child
DR12 -0.17 дБ -13.77 дБ 4:30 03-Mad
DR12 -0.10 дБ -14.37 дБ 4:26 04-Ecstasy
DR11 -0.10 дБ -14.64 дБ 4:10 05-Modern Dance
DR12 -0.10 дБ -14.67 дБ 5:56 06-Tatters
DR11 -0.66 дБ -12.58 дБ 3:03 07-Future Farmers of America
DR12 -0.10 дБ -16.55 дБ 4:22 08-Turning Time Around
DR11 -0.31 дБ -14.69 дБ 4:01 09-White Prism
DR12 -0.58 дБ -13.45 дБ 6:56 10-Rock Minuet
DR10 -0.10 дБ -13.76 дБ 4:55 11-Baton Rouge
DR11 -0.76 дБ -13.05 дБ 18:04 12-Like a Possum
DR9 -3.12 дБ -16.33 дБ 1:02 13-Rouge
DR11 -0.10 дБ -11.69 дБ 6:35 14-Big Sky
––––––––––––––––––––––––––––––––––––––––

Количество треков: 14
Реальные значения DR: DR11

Частота: 192000 Гц
Каналов: 2
Разрядность: 24
Битрейт: 5552 кбит/с
Кодек: FLAC
================================================================================


Thanks to the Original customer.