Tags
Language
Tags

Louis Armstrong - Louis And The Good Book (1958/2020) [Official Digital Download 24/96]

Posted By: pyatak
Louis Armstrong - Louis And The Good Book (1958/2020) [Official Digital Download 24/96]

Louis Armstrong - Louis And The Good Book (1958/2020) [Official Digital Download 24/96]
FLAC (tracks) 24-bit/96 kHz | Front Cover | Time - 62:21 minutes | 621 MB
Vocal Jazz, Gospel | Label: RevOla, Official Digital Download

Louis and the Good Book is a 1958 jazz and spirituals album by Louis Armstrong.

Singles included "I'll String Along with You" / "On My Way (Out on My Traveling Shoes)" 1959, also known as I'm On My Way.

TRACKLIST

1. Louis Armstrong - Nobody Knows The Trouble I've Seen (Remastered)
2. Louis Armstrong - Shadrack (Remastered)
3. Louis Armstrong - Go Down, Moses (Remastered)
4. Louis Armstrong - Rock My Soul (Remastered)
5. Louis Armstrong - Ezekiel Saw De Wheel (Remastered)
6. Louis Armstrong - On My Way (Remastered)
7. Louis Armstrong - Down By The Riverside (Remastered)
8. Louis Armstrong - Swing Low, Sweet Chariot (Remastered)
9. Louis Armstrong - Sometimes I Feel Like A Motherless Child (Remastered)
10. Louis Armstrong - Jonah And The Whale (Remastered)
11. Louis Armstrong - Didn't It Rain? (Remastered)
12. Louis Armstrong - This Train (Remastered)
13. Louis Armstrong - Sit Down, You're Rocking The Boat (Remastered)
14. Louis Armstrong - That's What The Man Said (Remastered)
15. Louis Armstrong - Shadrack (Single Version Remastered)
16. Louis Armstrong - Going To Shout All Over God's Heaven (Remastered)
17. Louis Armstrong - Nobody Knows The Trouble I've Seen (Single Version Remastered)
18. Louis Armstrong - Jonah And The Whale (Single Version Remastered)
19. Louis Armstrong - Elder Eatmore's Sermon On Throwing Stones (Remastered)
20. Louis Armstrong - Elder Eatmore's Sermon On Generosity (Remastered)

foobar2000 1.6.2 / Dynamic Range Meter 1.1.1
log date: 2021-09-12 17:01:10

––––––––––––––––––––––––––––––––––––––––
Analyzed: Louis Armstrong / Louis And The Good Book
––––––––––––––––––––––––––––––––––––––––

DR Peak RMS Duration Track
––––––––––––––––––––––––––––––––––––––––
DR13 -0.27 dB -16.50 dB 3:03 01-Nobody Knows The Trouble I've Seen (Remastered)
DR12 -0.16 dB -16.07 dB 2:47 02-Shadrack (Remastered)
DR12 0.00 dB -15.70 dB 3:41 03-Go Down, Moses (Remastered)
DR12 -1.20 dB -15.98 dB 2:58 04-Rock My Soul (Remastered)
DR13 0.00 dB -14.49 dB 2:34 05-Ezekiel Saw De Wheel (Remastered)
DR11 -1.01 dB -14.34 dB 3:06 06-On My Way (Remastered)
DR12 -0.19 dB -16.14 dB 3:11 07-Down By The Riverside (Remastered)
DR14 -0.64 dB -17.59 dB 3:10 08-Swing Low, Sweet Chariot (Remastered)
DR13 -1.72 dB -19.52 dB 3:30 09-Sometimes I Feel Like A Motherless Child (Remastered)
DR13 -1.34 dB -17.20 dB 2:40 10-Jonah And The Whale (Remastered)
DR11 -1.28 dB -15.40 dB 2:53 11-Didn't It Rain? (Remastered)
DR13 -0.16 dB -16.18 dB 2:32 12-This Train (Remastered)
DR14 0.00 dB -17.03 dB 3:18 13-Sit Down, You're Rocking The Boat (Remastered)
DR12 -1.46 dB -16.58 dB 2:59 14-That's What The Man Said (Remastered)
DR14 -0.72 dB -17.28 dB 2:36 15-Shadrack (Single Version Remastered)
DR16 -0.37 dB -20.47 dB 2:50 16-Going To Shout All Over God's Heaven (Remastered)
DR14 -0.04 dB -18.55 dB 3:13 17-Nobody Knows The Trouble I've Seen (Single Version Remastered)
DR15 -0.65 dB -20.26 dB 2:50 18-Jonah And The Whale (Single Version Remastered)
DR17 -0.09 dB -21.37 dB 4:22 19-Elder Eatmore's Sermon On Throwing Stones (Remastered)
DR15 -1.86 dB -20.83 dB 4:22 20-Elder Eatmore's Sermon On Generosity (Remastered)
––––––––––––––––––––––––––––––––––––––––

Number of tracks: 20
Official DR value: DR13

Samplerate: 96000 Hz
Channels: 2
Bits per sample: 24
Bitrate: 1312 kbps
Codec: FLAC
================================================================================



Thanks to the Original customer.