Low Roar - ross. (2019) [Official Digital Download]

Posted By: Pisulik
Low Roar - ross. (2019) [Official Digital Download]

Low Roar - ross. (2019)
FLAC (tracks) 24-bit/44.1 kHz | Time - 42:01 minutes | 424 MB
Studio Master, Official Digital Download | Artwork: Front cover

Great art has always incubated in human isolation. Low Roar-the musical vision of Ryan Karazija-alchemizes those moments of solitude into an album of glacial modern pop anthems. As a songwriter, Karazija has always understood that far from being antithetical to universality, honoring your personal experiences as unflinchingly as you can, is intrinsic to it. It's a record about the sometimes uneasy relationship between physical and emotional distance. Ryan has made a habit of documenting his life in honest songs that can swell your spirit or break your heart at any time. This fourth album, ross., perfectly honors the core sonic ideals at the heart of Low Roar with expansive atmospherics and a soft neon pulse of electronic beats through which minimalist arrangements and acoustic textures move.

Tracklist:

1. Darkest Hour (3:00)
2. Slow Down (3:52)
3. H.A.F.H. (4:15)
4. I'll Make You Feel (5:57)
5. Not Around (5:16)
6. 222 (3:51)
7. Feel Like Dying (3:11)
8. The Machine (5:38)
9. Blue Eyes (2:02)
10. Empty House (5:04)

foobar2000 1.3.7 / Dynamic Range Meter 1.1.1
log date: 2019-11-08 13:46:35

––––––––––––––––––––––––––––––––––––––––
Analyzed: Low Roar / ross.
––––––––––––––––––––––––––––––––––––––––

DR Peak RMS Duration Track
––––––––––––––––––––––––––––––––––––––––
DR9 -0.17 dB -10.92 dB 3:00 01-Darkest Hour
DR12 -0.29 dB -15.46 dB 3:52 02-Slow Down
DR9 -0.17 dB -11.41 dB 4:15 03-H.A.F.H.
DR8 -0.18 dB -11.24 dB 5:57 04-I'll Make You Feel
DR10 -0.22 dB -13.07 dB 5:16 05-Not Around
DR8 -0.20 dB -13.36 dB 3:51 06-222
DR8 -0.17 dB -11.48 dB 3:11 07-Feel Like Dying
DR9 -0.17 dB -11.25 dB 5:38 08-The Machine
DR12 -7.39 dB -23.58 dB 2:03 09-Blue Eyes
DR8 -0.16 dB -14.28 dB 5:03 10-Empty House
––––––––––––––––––––––––––––––––––––––––

Number of tracks: 10
Official DR value: DR9

Samplerate: 44100 Hz
Channels: 2
Bits per sample: 24
Bitrate: 1330 kbps
Codec: FLAC
================================================================================


All thanks go to the original releaser