Subcategories

Jean-Claude Casadesus & Orchestre National - Mahler: Symphony No. 2 "Resurrection" (2016) [Official Digital Download]

Posted By: SERTiL
Jean-Claude Casadesus & Orchestre National - Mahler: Symphony No. 2 "Resurrection" (2016) [Official Digital Download]

Jean-Claude Casadesus & Orchestre National - Mahler: Symphony No. 2 "Resurrection" (2016)
FLAC (tracks) 24-bit/48 kHz | Time - 85:19 minutes | 774 MB
Studio Master, Official Digital Download | Artwork: Digital booklet

Majestic and profoundly moving, Mahler’s 2nd Symphony (‘Resurrection’) constitutes one of the towering monuments of late-19th-century symphonic music and one of the composer’s most popular works. It was therefore logical that Jean-Claude Casadesus, a living legend of the conductor’s art, chose this work, which has accompanied him for many years, to celebrate the 40th anniversary of his Orchestre National de Lille.

This version, recorded live in the Auditorium du Nouveau Siècle in November 2015, is a deeply moving expression of the maestro’s love for this immense composer.

TRACKLIST

Gustav Mahler (1860-1911)

Symphony No. 2 in C Minor Resurrection
1 I. Allegro maestoso 21:52
2 II. Andante moderato 11:23
3 III. In ruhig fliessender Bewegung 11:21
4 IV. Urlich 04:50
5 V. In tempo des scherzos 35:54

PERSONNEL
Orchestre National de Lille
Jean-Claude Casadesus
Olena Tokar, soprano
Hermine Haselböck, mezzo-soprano
Chor Philharmonique Tchèque de Brno
Petr Fiala, chorus master

foobar2000 1.3.7 / Dynamic Range Meter 1.1.1
log date: 2017-10-17 18:20:46

––––––––––––––––––––––––––––––––––––––––
Analyzed: Jean-ClauCasadesus, Orchestre National Lille, Hermine Haselböck / Mahler: Symphony No. 2 "Resurrection" (1)
Jean-ClauCasadesus, Orchestre National Lille, Olena Tokar, Hermine Haselböck, Chœur Philharmonique Tchèque Brno, Petr Fiala / Mahler: Symphony No. 2 "Resurrection" (2)
Jean-ClauCasadesus, Orchestre National Lille / Mahler: Symphony No. 2 "Resurrection" (3-5)
––––––––––––––––––––––––––––––––––––––––

DR Peak RMS Duration Track
––––––––––––––––––––––––––––––––––––––––
DR14 -16.28 dB -37.63 dB 4:50 01-Symphony No. 2 in C Minor "Resurrection": IV. Urlich
DR17 0.00 dB -24.39 dB 35:54 02-Symphony No. 2 in C Minor "Resurrection": V. In tempo des scherzos
DR18 -2.51 dB -27.33 dB 21:52 01-Symphony No. 2 in C Minor "Resurrection": I. Allegro maestoso
DR15 -8.64 dB -31.34 dB 11:23 02-Symphony No. 2 in C Minor "Resurrection": II. Andante moderato
DR18 -4.99 dB -29.16 dB 11:21 03-Symphony No. 2 in C Minor "Resurrection": III. In ruhig fliessender Bewegung
––––––––––––––––––––––––––––––––––––––––

Number of tracks: 5
Official DR value: DR16

Samplerate: 48000 Hz
Channels: 2
Bits per sample: 24
Bitrate: 1252 kbps
Codec: FLAC
================================================================================


Thanks to the Original customer.