Mammoth WVH - Mammoth WVH (2021) [Official Digital Download 24/96]

Posted By: pyatak
Mammoth WVH - Mammoth WVH (2021) [Official Digital Download 24/96]

Mammoth WVH - Mammoth WVH (2021) [Official Digital Download 24/96]
FLAC (tracks) 24-bit/96 kHz | Front Cover | Time - 58:08 minutes | 1,28 gB
Rock | Label: Explorer 1 Records, Official Digital Download

Mammoth WVH is the debut, self-titled album of Mammoth WVH the band created by Wolfgang Van Halen. This collection includes the chart topping new single, "Distance plus Dont Back Down,Epiphany,Mammoth and more. At the beginning of 2015, Wolf broke ground on what would become Mammoth WVH with producer Michael Elvis Baskette [Alter Bridge, Slash] behind the board. Wolf began to embrace his voice, inspired by everyone from his father, to bands like AC/DC, Foo Fighters, Nine Inch Nails, TOOL, and Jimmy Eat World. In addition to writing and singing every song on the self-title debut album, remarkably Wolfgang plays every instrument. The name Mammoth is really special to me. says Wolf. Not only was it the name of Van Halen before it became Van Halen, but my father was also the lead singer. Ever since my dad told me this, I always thought that when I grew up, Id call my own band Mammoth, because I loved the name so much

TRACKLIST

1. Mammoth WVH - Mr. Ed
2. Mammoth WVH - Horribly Right
3. Mammoth WVH - Epiphany
4. Mammoth WVH - Don’t Back Down
5. Mammoth WVH - Resolve
6. Mammoth WVH - You’ll Be The One
7. Mammoth WVH - Mammoth
8. Mammoth WVH - Circles
9. Mammoth WVH - The Big Picture
10. Mammoth WVH - Think It Over
11. Mammoth WVH - You’re To Blame
12. Mammoth WVH - Feel
13. Mammoth WVH - Stone
14. Mammoth WVH - Distance

foobar2000 1.6.2 / Dynamic Range Meter 1.1.1
log date: 2021-06-10 23:08:29

––––––––––––––––––––––––––––––––––––––––
Analyzed: Mammoth WVH / Mammoth WVH
––––––––––––––––––––––––––––––––––––––––

DR Peak RMS Duration Track
––––––––––––––––––––––––––––––––––––––––
DR5 -0.30 dB -6.41 dB 3:44 01-Mr. Ed
DR5 -0.30 dB -7.08 dB 3:40 02-Horribly Right
DR5 -0.30 dB -7.56 dB 4:29 03-Epiphany
DR5 -0.30 dB -6.70 dB 3:46 04-Don’t Back Down
DR5 -0.30 dB -6.68 dB 5:03 05-Resolve
DR5 -0.30 dB -7.24 dB 3:02 06-You’ll Be The One
DR6 -0.30 dB -6.66 dB 4:30 07-Mammoth
DR5 -0.30 dB -7.53 dB 3:59 08-Circles
DR6 -0.30 dB -6.83 dB 3:15 09-The Big Picture
DR5 -0.30 dB -6.55 dB 3:55 10-Think It Over
DR5 -0.30 dB -6.92 dB 4:06 11-You’re To Blame
DR5 -0.30 dB -6.61 dB 3:57 12-Feel
DR5 -0.30 dB -7.19 dB 6:34 13-Stone
DR6 -0.30 dB -7.95 dB 4:14 14-Distance
––––––––––––––––––––––––––––––––––––––––

Number of tracks: 14
Official DR value: DR5

Samplerate: 96000 Hz
Channels: 2
Bits per sample: 24
Bitrate: 3013 kbps
Codec: FLAC
================================================================================



Thanks to the Original customer.