Marger - Inmortal (2019) [Official Digital Download]

Posted By: pyatak
Marger - Inmortal (2019) [Official Digital Download]

Marger - Inmortal (2019) [Official Digital Download]
FLAC (tracks) 24-bit/44.1 kHz | Front Cover | Time - 35:36 minutes | 413 MB
Pop, Latin | Label: Sony Music Latin, Official Digital Download

Marger es una cantante y compositora Venezolana, nacida en un hogar donde su abuelo era músico de Jazz y su abuela una cantante Gospel. Una artista multicultural Afro-latina con una voz penetrante y potente con reminiscencia al Soul y R&B con un poderoso carisma y una incomparable presencia escenica. Las letras de sus canciones y su estilo musical ha estado basado en en una madurez que se deja ver en una música que rompe estereotipos y las barreras del tiempo.

Vivimos en una época en donde la diversidad es valorada y necesaria y Marger orgullosamente representa esto: diversidad musical y cultural todo en uno.

Su primer album como solista y artista exclusiva de Sony Music se llama “Inmortal” y sale a la venta el próximo mes de Febrero 2019.

La primera aproximación de Marger con este nuevo lanzamiento fue durante el año 2018, donde realizó una extensa gira de medios en Buenos Aires que culminó con una presentación en el Teatro Sony a sala llena.

“Inmortal” es una producción hecha completamente en español. Fue grabada en Nashville, Tennessee, y producida por José Luis Pagán y a nivel vocal por Julio Bagué. Grabado en la cuna del blues, soul y el country, es un disco orgánico, que representa sus raíces musicales y particularmente a Marger, en esta etapa de su vida.

TRACKLIST

01. Marger - Sola (Georgia On My Mind)
02. Marger - El Día Después
03. Marger - Si Tú No Estás Aquí (Since I Don't Have You)
04. Marger - Baby Baby
05. Marger - Te Lo Advierto
06. Marger - Al Fin (At Last)
07. Marger - Qué Pretendes (The Great Pretender)
08. Marger - Tiro Al Blanco
09. Marger - Perfecta
10. Marger - Inmortal (Can the Circle Be Unbroken)

foobar2000 1.3.16 / Dynamic Range Meter 1.1.1
log date: 2019-02-11 18:00:33

––––––––––––––––––––––––––––––––––––––––
Analyzed: Marger / Inmortal
––––––––––––––––––––––––––––––––––––––––

DR Peak RMS Duration Track
––––––––––––––––––––––––––––––––––––––––
DR6 -1.10 dB -9.66 dB 3:02 01-Sola (Georgia On My Mind)
DR5 -1.04 dB -8.50 dB 3:45 02-El Día Después
DR6 -1.05 dB -8.52 dB 3:38 03-Si Tú No Estás Aquí (Since I Don't Have You)
DR6 -1.03 dB -9.42 dB 3:34 04-Baby Baby
DR7 -1.00 dB -9.96 dB 4:42 05-Te Lo Advierto
DR6 -1.04 dB -9.69 dB 4:06 06-Al Fin (At Last)
DR7 -1.06 dB -9.75 dB 3:18 07-Qué Pretendes (The Great Pretender)
DR8 -1.08 dB -10.95 dB 3:09 08-Tiro Al Blanco
DR6 -1.06 dB -8.80 dB 3:30 09-Perfecta
DR10 -1.11 dB -14.68 dB 2:51 10-Inmortal (Can the Circle Be Unbroken)
––––––––––––––––––––––––––––––––––––––––

Number of tracks: 10
Official DR value: DR7

Samplerate: 44100 Hz
Channels: 2
Bits per sample: 24
Bitrate: 1515 kbps
Codec: FLAC
================================================================================



Thanks to the Original customer.