Tags
Language
Tags
February 2023
Su Mo Tu We Th Fr Sa
29 30 31 1 2 3 4
5 6 7 8 9 10 11
12 13 14 15 16 17 18
19 20 21 22 23 24 25
26 27 28 1 2 3 4

Marie-Christine Barrault - Peter Pan ou la véritable histoire de Wendy Moira Angela Darling (2022) [Official Digital Download]

Posted By: pyatak
Marie-Christine Barrault - Peter Pan ou la véritable histoire de Wendy Moira Angela Darling (2022) [Official Digital Download]

Marie-Christine Barrault - Peter Pan ou la véritable histoire de Wendy Moira Angela Darling (2022) [Official Digital Download]
FLAC (tracks) 24-bit/48 kHz | Front Cover | Time - 01:54:22 minutes | 1,06 GB
Classical | Studio Master, Official Digital Download

A score illuminated by the magic of instrumental timbres, rich in rhythmic invention and harmonic spells. Since Hänsel and Gretel or The Child and the Spells, we may not have adorned the world of childhood with a more seductive garment"

-Le Monde

Mermaids, fairies, pirates, Indians, wild beasts; family disputes, the loss of children; nostalgia for looking back on one's past, etc. From the reflection on eternal childhood to the most spectacular battles, may this opera – like the tale of James Matthew Barrie - be open to all levels of reading.

Production TMP - Théâtre du Châtelet

TRACKLIST

CD 01
1. Chœur et orchestre du Châtelet - Peter Pan ou la véritable histoire de Wendy Moira Angela Darling: "Prélude"
2. Chœur et orchestre du Châtelet - Peter Pan ou la véritable histoire de Wendy Moira Angela Darling, Scene 1a: "La chambre de Wendy (agité)"
3. Chœur et orchestre du Châtelet - Peter Pan ou la véritable histoire de Wendy Moira Angela Darling: "La chambre de Wendy (calme)"
4. Chœur et orchestre du Châtelet - Peter Pan ou la véritable histoire de Wendy Moira Angela Darling, Scene 1b: "Mme Darling: « Ah, ma chérie, ton père! »"
5. Chœur et orchestre du Châtelet - Peter Pan ou la véritable histoire de Wendy Moira Angela Darling, Scene 2: "« Voilà comment j’ai parlé pour la première fois de Peter Pan »"
6. Chœur et orchestre du Châtelet - Peter Pan ou la véritable histoire de Wendy Moira Angela Darling, Scene 3a: "« Nous sommes attendus … »"
7. Chœur et orchestre du Châtelet - Peter Pan ou la véritable histoire de Wendy Moira Angela Darling, Scene 3b: "Une lumière étrange commence à baigner la chambre "
8. Chœur et orchestre du Châtelet - Peter Pan ou la véritable histoire de Wendy Moira Angela Darling: "« Wendy, aide-moi! »"
9. Chœur et orchestre du Châtelet - Peter Pan ou la véritable histoire de Wendy Moira Angela Darling, Scene 4a: "« J’étais partie en volant vers le pays de Peter Pan »"
10. Chœur et orchestre du Châtelet - Peter Pan ou la véritable histoire de Wendy Moira Angela Darling, Scene 4b: "Arrivée en vue de l’île"
11. Chœur et orchestre du Châtelet - Peter Pan ou la véritable histoire de Wendy Moira Angela Darling, Scene 5a: "Scène 5a « Oïlala laïa! » (Parade autour de l’île)"
12. Chœur et orchestre du Châtelet - Peter Pan ou la véritable histoire de Wendy Moira Angela Darling: "« Ils vont nous dévorer! »"
13. Chœur et orchestre du Châtelet - Peter Pan ou la véritable histoire de Wendy Moira Angela Darling, Scene 5b: "« Regardez! Les loups nous ont déviés »"
14. Chœur et orchestre du Châtelet - Peter Pan ou la véritable histoire de Wendy Moira Angela Darling: "« Ordre de Peter…tuer l’oiseau Wendy! »"
15. Chœur et orchestre du Châtelet - Peter Pan ou la véritable histoire de Wendy Moira Angela Darling, Scene 5c: "« Eh bien! C’est ainsi que l’on accueille son capitaine? »"
16. Chœur et orchestre du Châtelet - Peter Pan ou la véritable histoire de Wendy Moira Angela Darling, Scene 6: "« Son baiser t’a sauvée? Comment ça? »"
17. Chœur et orchestre du Châtelet - Peter Pan ou la véritable histoire de Wendy Moira Angela Darling, Scene 7a: "« Elle est trop faible pour bouger »"
18. Chœur et orchestre du Châtelet - Peter Pan ou la véritable histoire de Wendy Moira Angela Darling: "« Allez me chercher un docteur ! »"
19. Chœur et orchestre du Châtelet - Peter Pan ou la véritable histoire de Wendy Moira Angela Darling: "Ecoutez ! La voix de dame Wendy"
20. Chœur et orchestre du Châtelet - Peter Pan ou la véritable histoire de Wendy Moira Angela Darling: "« Dans ma jolie maison il y a une porte »"
21. Chœur et orchestre du Châtelet - Peter Pan ou la véritable histoire de Wendy Moira Angela Darling: "« Dame Wendy, nous sommes vos enfants »"
22. Chœur et orchestre du Châtelet - Peter Pan ou la véritable histoire de Wendy Moira Angela Darling, "Wendy:« Où suis-je? »"
23. Chœur et orchestre du Châtelet - Peter Pan ou la véritable histoire de Wendy Moira Angela Darling: "Les fées"
24. Chœur et orchestre du Châtelet - Peter Pan ou la véritable histoire de Wendy Moira Angela Darling, Scene 8a: "« Vous avez retrouvé son ombre? »"
25. Chœur et orchestre du Châtelet - Peter Pan ou la véritable histoire de Wendy Moira Angela Darling, Scene 8b: "Le lagon des sirènes"
26. Chœur et orchestre du Châtelet - Peter Pan ou la véritable histoire de Wendy Moira Angela Darling, Scene 9a: "« Mille Scorbuts ! »"
27. Chœur et orchestre du Châtelet - Peter Pan ou la véritable histoire de Wendy Moira Angela Darling, "Peter/Crochet : « Ohé!Oh! Du canot! »"
28. Chœur et orchestre du Châtelet - Peter Pan ou la véritable histoire de Wendy Moira Angela Darling: "« Ohé ! Oh ! Du canot !…Ohé ! Oh ! C’est moi, votre capitaine»"
29. Chœur et orchestre du Châtelet - Peter Pan ou la véritable histoire de Wendy Moira Angela Darling: "« Esprit du lagon, m’entends-tu? »"
30. Chœur et orchestre du Châtelet - Peter Pan ou la véritable histoire de Wendy Moira Angela Darling: "« Crochet, as-tu une autre voix? »"
31. Chœur et orchestre du Châtelet - Peter Pan ou la véritable histoire de Wendy Moira Angela Darling, Scene 9b: "« Peter Pan, à nous deux! »"
32. Chœur et orchestre du Châtelet - Peter Pan ou la véritable histoire de Wendy Moira Angela Darling: "« On n’y voit presque plus rien »"
33. Chœur et orchestre du Châtelet - Peter Pan ou la véritable histoire de Wendy Moira Angela Darling, Scene 9c: "L’oiseau de Nulle-Part"

CD 02
1. Chœur et orchestre du Châtelet - Peter Pan ou la véritable histoire de Wendy Moira Angela Darling, Scene 10: "« Et toi, comment as-tu fait pour ne pas mourir noyée? »"
2. Chœur et orchestre du Châtelet - Peter Pan ou la véritable histoire de Wendy Moira Angela Darling, Scene 11a: "Au camp des indiens"
3. Chœur et orchestre du Châtelet - Peter Pan ou la véritable histoire de Wendy Moira Angela Darling: "« Pikanies trouver nouveau frère blanc. »"
4. Chœur et orchestre du Châtelet - Peter Pan ou la véritable histoire de Wendy Moira Angela Darling: "« Peter Pan sauver moi; moi très amie Peter Pan »"
5. Chœur et orchestre du Châtelet - Peter Pan ou la véritable histoire de Wendy Moira Angela Darling, Scene 11b: "Le repas agité des garçons"
6. Chœur et orchestre du Châtelet - Peter Pan ou la véritable histoire de Wendy Moira Angela Darling: "« Et bien! Qu’est-ce que j’entends? »"
7. Chœur et orchestre du Châtelet - Peter Pan ou la véritable histoire de Wendy Moira Angela Darling, Scene 11c: "« Maman, tu nous dis notre histoire? »"
8. Chœur et orchestre du Châtelet - Peter Pan ou la véritable histoire de Wendy Moira Angela Darling: ""Il était une fois, un monsieur…""
9. Chœur et orchestre du Châtelet - Peter Pan ou la véritable histoire de Wendy Moira Angela Darling: "« Et voici le plus merveilleux de l’histoire »"
10. Chœur et orchestre du Châtelet - Peter Pan ou la véritable histoire de Wendy Moira Angela Darling, "Peter Pan: " Ce n’est pas la bonne fin.""
11. Chœur et orchestre du Châtelet - Peter Pan ou la véritable histoire de Wendy Moira Angela Darling, Scene 12a: "« Pinces…Colle…Ficelle… » (chez M et Mme Darling)"
12. Chœur et orchestre du Châtelet - Peter Pan ou la véritable histoire de Wendy Moira Angela Darling, Scene 12b: "La fenêtre de la chambre"
13. Chœur et orchestre du Châtelet - Peter Pan ou la véritable histoire de Wendy Moira Angela Darling, Scene 13a: "Wendy: « Tu ne viens pas avec nous? »"
14. Chœur et orchestre du Châtelet - Peter Pan ou la véritable histoire de Wendy Moira Angela Darling, Scene 13b: "Première bataille, victoire des indiens"
15. Chœur et orchestre du Châtelet - Peter Pan ou la véritable histoire de Wendy Moira Angela Darling, Scene 14: "« Crochet a été tué? »"
16. Chœur et orchestre du Châtelet - Peter Pan ou la véritable histoire de Wendy Moira Angela Darling, Scene 15a: "Deuxième bataille, victoire des Pirates"
17. Chœur et orchestre du Châtelet - Peter Pan ou la véritable histoire de Wendy Moira Angela Darling, Scene 15b: "« Hourra! Victoire indienne! »"
18. Chœur et orchestre du Châtelet - Peter Pan ou la véritable histoire de Wendy Moira Angela Darling, Scene 15c: "« Pas si vite, je ne te comprends pas. »"
19. Chœur et orchestre du Châtelet - Peter Pan ou la véritable histoire de Wendy Moira Angela Darling: "« C’était donc vrai. Tu as tout bu pour me sauver la vie. »"
20. Chœur et orchestre du Châtelet - Peter Pan ou la véritable histoire de Wendy Moira Angela Darling: "« Je sais que les fées existent »"
21. Chœur et orchestre du Châtelet - Peter Pan ou la véritable histoire de Wendy Moira Angela Darling, Scene 16: "« Et toi alors, pendant ce temps; tu étais prisonnière? »"
22. Chœur et orchestre du Châtelet - Peter Pan ou la véritable histoire de Wendy Moira Angela Darling, Scene 17a: "Sur le vaisseau des Pirates"
23. Chœur et orchestre du Châtelet - Peter Pan ou la véritable histoire de Wendy Moira Angela Darling, Scene 17b: "Chanson du Pirate"
24. Chœur et orchestre du Châtelet - Peter Pan ou la véritable histoire de Wendy Moira Angela Darling, Scene 17c: "Crochet: « Quel est ce ramassis de viande saoule? »"
25. Chœur et orchestre du Châtelet - Peter Pan ou la véritable histoire de Wendy Moira Angela Darling: "Air du savoir-vivre (Crochet)"
26. Chœur et orchestre du Châtelet - Peter Pan ou la véritable histoire de Wendy Moira Angela Darling, Scene 17d: "« Vous n’êtes pas bien, Capitaine? »"
27. Chœur et orchestre du Châtelet - Peter Pan ou la véritable histoire de Wendy Moira Angela Darling: "« Plus de tic-tac; il est parti. »"
28. Chœur et orchestre du Châtelet - Peter Pan ou la véritable histoire de Wendy Moira Angela Darling: "Choeur des Pirates « le fouet »"
29. Chœur et orchestre du Châtelet - Peter Pan ou la véritable histoire de Wendy Moira Angela Darling, Scene 17e: "Crochet: « Pourquoi me tuer? »"
30. Chœur et orchestre du Châtelet - Peter Pan ou la véritable histoire de Wendy Moira Angela Darling, Scene 17f: "« Hourrah ! Victoire totale !»"
31. Chœur et orchestre du Châtelet - Peter Pan ou la véritable histoire de Wendy Moira Angela Darling, "Peter Pan: « Allez, chiens ! laissez-moi seul !"
32. Chœur et orchestre du Châtelet - Peter Pan ou la véritable histoire de Wendy Moira Angela Darling, Scene 18: "Retour vers le 2e monde (la chambre de Wendy)"
33. Chœur et orchestre du Châtelet - Peter Pan ou la véritable histoire de Wendy Moira Angela Darling, Scene 19a: "Lucie: « Moi, je sais que ce n’était pas un rêve… »"
34. Chœur et orchestre du Châtelet - Peter Pan ou la véritable histoire de Wendy Moira Angela Darling, Scene 19b: "Mamie Wendy: « Peter! »"

foobar2000 1.6.2 / Dynamic Range Meter 1.1.1
log date: 2022-11-05 10:55:52

––––––––––––––––––––––––––––––––––––––––
Analyzed: Chœur et orchestre du Châtelet / Peter Pan ou la véritable histoire de Wendy Moira Angela Darling
––––––––––––––––––––––––––––––––––––––––

DR Peak RMS Duration Track
––––––––––––––––––––––––––––––––––––––––
DR11 -10.48 dB -27.37 dB 0:48 01-Peter Pan ou la véritable histoire de Wendy Moira Angela Darling: "Prélude"
DR15 -2.35 dB -23.70 dB 0:50 02-Peter Pan ou la véritable histoire de Wendy Moira Angela Darling, Scene 1a: "La chambre de Wendy (agité)"
DR14 -5.95 dB -29.92 dB 0:57 03-Peter Pan ou la véritable histoire de Wendy Moira Angela Darling: "La chambre de Wendy (calme)"
DR20 -1.79 dB -30.46 dB 3:12 04-Peter Pan ou la véritable histoire de Wendy Moira Angela Darling, Scene 1b: "Mme Darling: « Ah, ma chérie, ton père! »"
DR12 -14.79 dB -32.41 dB 0:36 05-Peter Pan ou la véritable histoire de Wendy Moira Angela Darling, Scene 2: "« Voilà comment j’ai parlé pour la première fois de Peter Pan »"
DR17 -6.02 dB -30.65 dB 2:09 06-Peter Pan ou la véritable histoire de Wendy Moira Angela Darling, Scene 3a: "« Nous sommes attendus … »"
DR9 -22.05 dB -40.60 dB 0:47 07-Peter Pan ou la véritable histoire de Wendy Moira Angela Darling, Scene 3b: "Une lumière étrange commence à baigner la chambre "
DR15 -5.24 dB -27.57 dB 4:06 08-Peter Pan ou la véritable histoire de Wendy Moira Angela Darling: "« Wendy, aide-moi! »"
DR19 -4.58 dB -32.20 dB 3:17 09-Peter Pan ou la véritable histoire de Wendy Moira Angela Darling, Scene 4a: "« J’étais partie en volant vers le pays de Peter Pan »"
DR7 -0.09 dB -21.36 dB 0:40 10-Peter Pan ou la véritable histoire de Wendy Moira Angela Darling, Scene 4b: "Arrivée en vue de l’île"
DR15 -0.52 dB -22.05 dB 7:47 11-Peter Pan ou la véritable histoire de Wendy Moira Angela Darling, Scene 5a: "Scène 5a « Oïlala laïa! » (Parade autour de l’île)"
DR15 -0.65 dB -22.51 dB 1:37 12-Peter Pan ou la véritable histoire de Wendy Moira Angela Darling: "« Ils vont nous dévorer! »"
DR11 -0.69 dB -20.06 dB 1:02 13-Peter Pan ou la véritable histoire de Wendy Moira Angela Darling, Scene 5b: "« Regardez! Les loups nous ont déviés »"
DR14 -1.97 dB -22.80 dB 1:48 14-Peter Pan ou la véritable histoire de Wendy Moira Angela Darling: "« Ordre de Peter…tuer l’oiseau Wendy! »"
DR15 -5.62 dB -28.31 dB 2:33 15-Peter Pan ou la véritable histoire de Wendy Moira Angela Darling, Scene 5c: "« Eh bien! C’est ainsi que l’on accueille son capitaine? »"
DR14 -13.45 dB -33.06 dB 1:18 16-Peter Pan ou la véritable histoire de Wendy Moira Angela Darling, Scene 6: "« Son baiser t’a sauvée? Comment ça? »"
DR17 -3.17 dB -26.24 dB 1:57 17-Peter Pan ou la véritable histoire de Wendy Moira Angela Darling, Scene 7a: "« Elle est trop faible pour bouger »"
DR14 -2.79 dB -24.43 dB 1:57 18-Peter Pan ou la véritable histoire de Wendy Moira Angela Darling: "« Allez me chercher un docteur ! »"
DR9 -11.94 dB -30.47 dB 1:07 19-Peter Pan ou la véritable histoire de Wendy Moira Angela Darling: "Ecoutez ! La voix de dame Wendy"
DR13 -14.49 dB -32.72 dB 2:38 20-Peter Pan ou la véritable histoire de Wendy Moira Angela Darling: "« Dans ma jolie maison il y a une porte »"
DR11 -13.81 dB -29.16 dB 0:46 21-Peter Pan ou la véritable histoire de Wendy Moira Angela Darling: "« Dame Wendy, nous sommes vos enfants »"
DR10 -15.64 dB -30.57 dB 1:20 22-Peter Pan ou la véritable histoire de Wendy Moira Angela Darling, "Wendy:« Où suis-je? »"
DR13 -9.55 dB -27.92 dB 2:46 23-Peter Pan ou la véritable histoire de Wendy Moira Angela Darling: "Les fées"
DR15 -8.96 dB -31.41 dB 1:57 24-Peter Pan ou la véritable histoire de Wendy Moira Angela Darling, Scene 8a: "« Vous avez retrouvé son ombre? »"
DR15 -3.46 dB -26.93 dB 2:28 25-Peter Pan ou la véritable histoire de Wendy Moira Angela Darling, Scene 8b: "Le lagon des sirènes"
DR14 -3.98 dB -25.91 dB 0:56 26-Peter Pan ou la véritable histoire de Wendy Moira Angela Darling, Scene 9a: "« Mille Scorbuts ! »"
DR14 -3.84 dB -28.42 dB 1:16 27-Peter Pan ou la véritable histoire de Wendy Moira Angela Darling, "Peter/Crochet : « Ohé!Oh! Du canot! »"
DR17 -4.85 dB -27.78 dB 2:10 28-Peter Pan ou la véritable histoire de Wendy Moira Angela Darling: "« Ohé ! Oh ! Du canot !…Ohé ! Oh ! C’est moi, votre capitaine»"
DR17 0.00 dB -25.92 dB 1:03 29-Peter Pan ou la véritable histoire de Wendy Moira Angela Darling: "« Esprit du lagon, m’entends-tu? »"
DR16 -0.18 dB -25.79 dB 0:54 30-Peter Pan ou la véritable histoire de Wendy Moira Angela Darling: "« Crochet, as-tu une autre voix? »"
DR15 0.00 dB -24.30 dB 1:37 31-Peter Pan ou la véritable histoire de Wendy Moira Angela Darling, Scene 9b: "« Peter Pan, à nous deux! »"
DR12 -9.67 dB -30.18 dB 0:48 32-Peter Pan ou la véritable histoire de Wendy Moira Angela Darling: "« On n’y voit presque plus rien »"
DR11 -13.23 dB -27.49 dB 1:17 33-Peter Pan ou la véritable histoire de Wendy Moira Angela Darling, Scene 9c: "L’oiseau de Nulle-Part"
––––––––––––––––––––––––––––––––––––––––

Number of tracks: 33
Official DR value: DR14

Samplerate: 48000 Hz
Channels: 2
Bits per sample: 24
Bitrate: 1341 kbps
Codec: FLAC
================================================================================

foobar2000 1.6.2 / Dynamic Range Meter 1.1.1
log date: 2022-11-05 10:56:03

––––––––––––––––––––––––––––––––––––––––
Analyzed: Chœur et orchestre du Châtelet / Peter Pan ou la véritable histoire de Wendy Moira Angela Darling
––––––––––––––––––––––––––––––––––––––––

DR Peak RMS Duration Track
––––––––––––––––––––––––––––––––––––––––
DR14 -16.66 dB -35.40 dB 0:48 01-Peter Pan ou la véritable histoire de Wendy Moira Angela Darling, Scene 10: "« Et toi, comment as-tu fait pour ne pas mourir noyée? »"
DR13 -5.61 dB -24.68 dB 1:01 02-Peter Pan ou la véritable histoire de Wendy Moira Angela Darling, Scene 11a: "Au camp des indiens"
DR12 -8.93 dB -27.23 dB 1:19 03-Peter Pan ou la véritable histoire de Wendy Moira Angela Darling: "« Pikanies trouver nouveau frère blanc. »"
DR17 -2.77 dB -31.32 dB 1:48 04-Peter Pan ou la véritable histoire de Wendy Moira Angela Darling: "« Peter Pan sauver moi; moi très amie Peter Pan »"
DR13 -4.47 dB -25.52 dB 1:46 05-Peter Pan ou la véritable histoire de Wendy Moira Angela Darling, Scene 11b: "Le repas agité des garçons"
DR17 -0.57 dB -29.55 dB 1:49 06-Peter Pan ou la véritable histoire de Wendy Moira Angela Darling: "« Et bien!  Qu’est-ce que j’entends? »"
DR14 -8.22 dB -31.19 dB 0:51 07-Peter Pan ou la véritable histoire de Wendy Moira Angela Darling, Scene 11c: "« Maman, tu nous dis notre histoire? »"
DR13 -10.78 dB -30.05 dB 2:51 08-Peter Pan ou la véritable histoire de Wendy Moira Angela Darling: ""Il était une fois, un monsieur…""
DR10 -9.43 dB -28.58 dB 1:10 09-Peter Pan ou la véritable histoire de Wendy Moira Angela Darling: "« Et voici le plus merveilleux de l’histoire »"
DR12 -6.90 dB -28.31 dB 1:58 10-Peter Pan ou la véritable histoire de Wendy Moira Angela Darling, "Peter Pan: " Ce n’est pas la bonne fin.""
DR18 -3.87 dB -29.09 dB 3:35 11-Peter Pan ou la véritable histoire de Wendy Moira Angela Darling, Scene 12a: "« Pinces…Colle…Ficelle… » (chez M et Mme Darling)"
DR14 -10.76 dB -35.46 dB 1:27 12-Peter Pan ou la véritable histoire de Wendy Moira Angela Darling, Scene 12b: "La fenêtre de la chambre"
DR12 -10.41 dB -31.22 dB 0:59 13-Peter Pan ou la véritable histoire de Wendy Moira Angela Darling, Scene 13a: "Wendy: « Tu ne viens pas avec nous? »"
DR12 -1.46 dB -18.51 dB 0:22 14-Peter Pan ou la véritable histoire de Wendy Moira Angela Darling, Scene 13b: "Première bataille, victoire des indiens"
DR16 -7.85 dB -29.79 dB 0:48 15-Peter Pan ou la véritable histoire de Wendy Moira Angela Darling, Scene 14: "« Crochet a été tué? »"
DR13 -1.64 dB -22.33 dB 0:35 16-Peter Pan ou la véritable histoire de Wendy Moira Angela Darling, Scene 15a: "Deuxième bataille, victoire des Pirates"
DR15 -8.69 dB -29.88 dB 1:40 17-Peter Pan ou la véritable histoire de Wendy Moira Angela Darling, Scene 15b: "« Hourra! Victoire indienne! »"
DR17 -3.49 dB -25.76 dB 1:47 18-Peter Pan ou la véritable histoire de Wendy Moira Angela Darling, Scene 15c: "« Pas si vite, je ne te comprends pas. »"
DR17 -7.21 dB -32.32 dB 3:00 19-Peter Pan ou la véritable histoire de Wendy Moira Angela Darling: "« C’était donc vrai. Tu as tout bu pour me sauver la vie. »"
DR13 -1.00 dB -24.97 dB 1:38 20-Peter Pan ou la véritable histoire de Wendy Moira Angela Darling: "« Je sais que les fées existent »"
DR15 -9.66 dB -31.59 dB 0:19 21-Peter Pan ou la véritable histoire de Wendy Moira Angela Darling, Scene 16: "« Et toi alors, pendant ce temps; tu étais prisonnière? »"
DR17 -0.55 dB -23.09 dB 1:45 22-Peter Pan ou la véritable histoire de Wendy Moira Angela Darling, Scene 17a: "Sur le vaisseau des Pirates"
DR15 -2.93 dB -23.60 dB 3:39 23-Peter Pan ou la véritable histoire de Wendy Moira Angela Darling, Scene 17b: "Chanson du Pirate"
DR10 -1.90 dB -27.30 dB 1:32 24-Peter Pan ou la véritable histoire de Wendy Moira Angela Darling, Scene 17c: "Crochet: « Quel est ce ramassis de viande saoule? »"
DR14 -6.97 dB -28.93 dB 3:59 25-Peter Pan ou la véritable histoire de Wendy Moira Angela Darling: "Air du savoir-vivre (Crochet)"
DR16 -3.03 dB -27.95 dB 2:32 26-Peter Pan ou la véritable histoire de Wendy Moira Angela Darling, Scene 17d: "« Vous n’êtes pas bien, Capitaine? »"
DR13 -9.98 dB -30.72 dB 0:45 27-Peter Pan ou la véritable histoire de Wendy Moira Angela Darling: "« Plus de tic-tac; il est parti. »"
DR14 -4.96 dB -27.31 dB 2:08 28-Peter Pan ou la véritable histoire de Wendy Moira Angela Darling: "Choeur des Pirates «  le fouet »"
DR16 -1.46 dB -23.05 dB 1:27 29-Peter Pan ou la véritable histoire de Wendy Moira Angela Darling, Scene 17e: "Crochet: « Pourquoi me tuer? »"
DR12 -4.48 dB -22.66 dB 1:07 30-Peter Pan ou la véritable histoire de Wendy Moira Angela Darling, Scene 17f: "« Hourrah ! Victoire totale !»"
DR12 -6.43 dB -22.47 dB 1:39 31-Peter Pan ou la véritable histoire de Wendy Moira Angela Darling, "Peter Pan: « Allez, chiens ! laissez-moi seul !"
DR3 -4.05 dB -32.52 dB 0:24 32-Peter Pan ou la véritable histoire de Wendy Moira Angela Darling, Scene 18: "Retour vers le 2e monde (la chambre de Wendy)"
DR12 -13.10 dB -33.23 dB 0:24 33-Peter Pan ou la véritable histoire de Wendy Moira Angela Darling, Scene 19a: "Lucie: « Moi, je sais que ce n’était pas un rêve… »"
DR11 -4.79 dB -27.57 dB 1:06 34-Peter Pan ou la véritable histoire de Wendy Moira Angela Darling, Scene 19b: "Mamie Wendy: « Peter! »"
––––––––––––––––––––––––––––––––––––––––

Number of tracks: 34
Official DR value: DR14

Samplerate: 48000 Hz
Channels: 2
Bits per sample: 24
Bitrate: 1277 kbps
Codec: FLAC
================================================================================



Thanks to the Original customer.