Tags
Language
Tags

Mario Brunello - Bach - Sei suonate à cembalo certato è violoncello piccolo solo (2021) [Official Digital Download 24/96]

Posted By: pyatak
Mario Brunello - Bach - Sei suonate à cembalo certato è violoncello piccolo solo (2021) [Official Digital Download 24/96]

Mario Brunello - Bach - Sei suonate à cembalo certato è violoncello piccolo solo (2021) [Official Digital Download 24/96]
FLAC (tracks) 24-bit/96 kHz | Front Cover | Time - 97:54 minutes | 1,92 GB
Classical | Label: Arcana, Official Digital Download

After mastering the Sonatas and Partitas, Mario Brunello continues his trilogy devoted to reinterpreting Bach’s violin masterpieces on the violoncello piccolo. In this second volume he tackles the other great collection, the Sei Suonate a cembalo certato e violino solo (Six sonatas for concertato harpsichord and solo violin). Conceived in three parts, like sonatas for two treble instruments and continuo, these famous pieces appear transfigured here in a kaleidoscope of colours in which the violoncello piccolo intertwines with the keyboard, alternately harpsichord and organ, and with the bass doubled in turn by viola da gamba and cello – an accompaniment specifically suggested by one of the surviving copies of the sonatas.

TRACKLIST

01. Mario Brunello, Roberto Loreggian, Francesco Galligioni - Bach: Sonata No. 1 in B Minor BWV 1014: I. Adagio
02. Mario Brunello, Roberto Loreggian, Francesco Galligioni - Bach: Sonata No. 1 in B Minor BWV 1014: II. Allegro
03. Mario Brunello, Roberto Loreggian, Francesco Galligioni - Bach: Sonata No. 1 in B Minor BWV 1014: III. Andante
04. Mario Brunello, Roberto Loreggian, Francesco Galligioni - Bach: Sonata No. 1 in B Minor BWV 1014: IV. Allegro
05. Mario Brunello, Roberto Loreggian, Francesco Galligioni - Bach: Sonata No. 2 in A Major BWV 1015: I. Dolce
06. Mario Brunello, Roberto Loreggian, Francesco Galligioni - Bach: Sonata No. 2 in A Major BWV 1015: II. Allegro assai
07. Mario Brunello, Roberto Loreggian, Francesco Galligioni - Bach: Sonata No. 2 in A Major BWV 1015: III. Andante un poco
08. Mario Brunello, Roberto Loreggian, Francesco Galligioni - Bach: Sonata No. 2 in A Major BWV 1015: IV. Presto
09. Mario Brunello, Roberto Loreggian, Francesco Galligioni - Bach: Sonata No. 3 in E Major BWV 1016: I. Adagio
10. Mario Brunello, Roberto Loreggian, Francesco Galligioni - Bach: Sonata No. 3 in E Major BWV 1016: II. Allegro
11. Mario Brunello, Roberto Loreggian, Francesco Galligioni - Bach: Sonata No. 3 in E Major BWV 1016: III. Adagio ma non tanto
12. Mario Brunello, Roberto Loreggian, Francesco Galligioni - Bach: Sonata No. 3 in E Major BWV 1016: IV. Allegro
13. Mario Brunello, Roberto Loreggian, Francesco Galligioni - Bach: Sonata No. 4 in C Minor BWV 1017: I. Largo
14. Mario Brunello, Roberto Loreggian, Francesco Galligioni - Bach: Sonata No. 4 in C Minor BWV 1017: II. Allegro
15. Mario Brunello, Roberto Loreggian, Francesco Galligioni - Bach: Sonata No. 4 in C Minor BWV 1017: III. Adagio
16. Mario Brunello, Roberto Loreggian, Francesco Galligioni - Bach: Sonata No. 4 in C Minor BWV 1017: IV. Allegro
17. Mario Brunello, Roberto Loreggian, Francesco Galligioni - Bach: Sonata No. 5 in F Minor BWV 1018: I. [Lamento]
18. Mario Brunello, Roberto Loreggian, Francesco Galligioni - Bach: Sonata No. 5 in F Minor BWV 1018: II. Allegro
19. Mario Brunello, Roberto Loreggian, Francesco Galligioni - Bach: Sonata No. 5 in F Minor BWV 1018: III. Adagio
20. Mario Brunello, Roberto Loreggian, Francesco Galligioni - Bach: Sonata No. 5 in F Minor BWV 1018: IV. Vivace
21. Mario Brunello, Roberto Loreggian, Francesco Galligioni - Bach: Sonata No. 6 in G Major BWV 1019: I. Allegro
22. Mario Brunello, Roberto Loreggian, Francesco Galligioni - Bach: Sonata No. 6 in G Major BWV 1019: II. Largo
23. Mario Brunello, Roberto Loreggian, Francesco Galligioni - Bach: Sonata No. 6 in G Major BWV 1019: III. Allegro
24. Mario Brunello, Roberto Loreggian, Francesco Galligioni - Bach: Sonata No. 6 in G Major BWV 1019: IV. Adagio
25. Mario Brunello, Roberto Loreggian, Francesco Galligioni - Bach: Sonata No. 6 in G Major BWV 1019: V. Allegro

[foobar2000 1.6.2 / Dynamic Range Meter 1.1.1
log date: 2021-09-09 08:13:05

––––––––––––––––––––––––––––––––––––––––
Analyzed: Mario Brunello, Roberto Loreggian, Francesco Galligioni / Bach: Sei suonate à cembalo certato è violoncello piccolo solo
––––––––––––––––––––––––––––––––––––––––

DR Peak RMS Duration Track
––––––––––––––––––––––––––––––––––––––––
DR10 0.00 dB -14.25 dB 3:20 01-Bach: Sonata No. 1 in B Minor BWV 1014: I. Adagio
DR13 0.00 dB -14.94 dB 2:58 02-Bach: Sonata No. 1 in B Minor BWV 1014: II. Allegro
DR11 0.00 dB -14.81 dB 3:20 03-Bach: Sonata No. 1 in B Minor BWV 1014: III. Andante
DR12 0.00 dB -13.68 dB 3:30 04-Bach: Sonata No. 1 in B Minor BWV 1014: IV. Allegro
DR12 -0.98 dB -16.11 dB 4:04 05-Bach: Sonata No. 2 in A Major BWV 1015: I. Dolce
DR12 0.00 dB -14.40 dB 3:30 06-Bach: Sonata No. 2 in A Major BWV 1015: II. Allegro assai
DR11 0.00 dB -15.33 dB 2:49 07-Bach: Sonata No. 2 in A Major BWV 1015: III. Andante un poco
DR12 0.00 dB -14.37 dB 5:13 08-Bach: Sonata No. 2 in A Major BWV 1015: IV. Presto
DR11 0.00 dB -14.83 dB 4:19 09-Bach: Sonata No. 3 in E Major BWV 1016: I. Adagio
DR11 -1.36 dB -14.64 dB 3:07 10-Bach: Sonata No. 3 in E Major BWV 1016: II. Allegro
DR11 0.00 dB -13.86 dB 5:18 11-Bach: Sonata No. 3 in E Major BWV 1016: III. Adagio ma non tanto
DR10 0.00 dB -12.10 dB 4:18 12-Bach: Sonata No. 3 in E Major BWV 1016: IV. Allegro
DR13 0.00 dB -15.06 dB 4:39 13-Bach: Sonata No. 4 in C Minor BWV 1017: I. Largo
DR12 0.00 dB -14.12 dB 4:33 14-Bach: Sonata No. 4 in C Minor BWV 1017: II. Allegro
DR10 -0.13 dB -15.26 dB 3:07 15-Bach: Sonata No. 4 in C Minor BWV 1017: III. Adagio
DR12 -0.01 dB -14.76 dB 4:47 16-Bach: Sonata No. 4 in C Minor BWV 1017: IV. Allegro
DR11 0.00 dB -14.61 dB 7:10 17-Bach: Sonata No. 5 in F Minor BWV 1018: I. [Lamento]
DR11 0.00 dB -13.84 dB 4:53 18-Bach: Sonata No. 5 in F Minor BWV 1018: II. Allegro
DR10 -0.56 dB -14.52 dB 2:51 19-Bach: Sonata No. 5 in F Minor BWV 1018: III. Adagio
DR10 0.00 dB -12.72 dB 2:34 20-Bach: Sonata No. 5 in F Minor BWV 1018: IV. Vivace
DR10 0.00 dB -12.17 dB 3:39 21-Bach: Sonata No. 6 in G Major BWV 1019: I. Allegro
DR11 -1.37 dB -18.98 dB 2:08 22-Bach: Sonata No. 6 in G Major BWV 1019: II. Largo
DR11 0.00 dB -15.10 dB 5:09 23-Bach: Sonata No. 6 in G Major BWV 1019: III. Allegro
DR12 -1.49 dB -20.97 dB 2:53 24-Bach: Sonata No. 6 in G Major BWV 1019: IV. Adagio
DR10 0.00 dB -12.19 dB 3:45 25-Bach: Sonata No. 6 in G Major BWV 1019: V. Allegro
––––––––––––––––––––––––––––––––––––––––

Number of tracks: 25
Official DR value: DR11

Samplerate: 96000 Hz
Channels: 2
Bits per sample: 24
Bitrate: 2955 kbps
Codec: FLAC
================================================================================

/hide]

Thanks to the Original customer.