Maroon 5 - JORDI (Deluxe) (2021) [Official Digital Download]

Posted By: pyatak
Maroon 5 - JORDI (Deluxe) (2021) [Official Digital Download]

Maroon 5 - JORDI (Deluxe) (2021) [Official Digital Download]
FLAC (tracks) 24-bit/44.1 kHz | Front Cover | Time - 43:02 minutes | 478 MB
Pop Rock | Label: 222 Records - Interscope Records, Official Digital Download

Maroon 5 release their new album JORDI. In addition to the already released singles "Memories" and "Nobody's Love", the album also contains "Beautiful Mistakes" featuring Megan Thee Stallion.
To date, the well - known band from Los Angeles has won three GRAMMY Awards, sold over 75 million albums and 400 million singles worldwide, and achieved gold and platinum certifications in more than 35 countries.
With their debut album "Sogs About Jane", released in 2002, Maroon 5 convinced the world with their hybrid rock/R&B sound. This was followed by worldwide hits such as "Moves Like Jagger", "Animals", "Sugar" and "Girls Like You". With their singles, the band has reached eleven number 1 placements to date, setting the record for the most number 1 placements by a band/duo in the history of the Billboard Top 40 chart.
The album will be available both digitally and physically as a CD and Deluxe CD with two bonus tracks.

TRACKLIST

01. Beautiful Mistakes (with Megan Thee Stallion) (3:47)
02. Lost (2:53)
03. Echo (featuring Blackbear) (2:59)
04. Lovesick (3:05)
05. Remedy (featuring Stevie Nicks) (2:29)
06. Seasons (2:48)
07. One Light (featuring Bantu) (3:34)
08. Convince Me Otherwise (with H.E.R.) (3:08)
09. Nobody's Love (3:31)
10. Can't Leave You Alone (featuring Juice Wrld) (3:17)
11. Memories (3:09)
12. Memories (remix, featuring Nipsey Hussle and YG) (3:09)
13. Button (featuring Anuel AA and Tainy) (2:44)
14. Lifestyle (Jason Derulo featuring Adam Levine) (2:34)

foobar2000 1.6.2 / Dynamic Range Meter 1.1.1
log date: 2021-06-10 18:30:07

––––––––––––––––––––––––––––––––––––––––
Analyzed: Maroon 5 / JORDI (Deluxe - Explicit)
––––––––––––––––––––––––––––––––––––––––

DR Peak RMS Duration Track
––––––––––––––––––––––––––––––––––––––––
DR6 -0.20 dB -7.73 dB 3:47 01-Beautiful Mistakes
DR5 -0.20 dB -7.48 dB 2:53 02-Lost
DR3 -0.20 dB -5.09 dB 2:59 03-Echo
DR5 -0.20 dB -6.64 dB 3:05 04-Lovesick
DR5 -0.20 dB -7.86 dB 2:29 05-Remedy
DR5 -0.20 dB -8.37 dB 2:48 06-Seasons
DR6 -0.20 dB -7.69 dB 3:34 07-One Light
DR5 -0.20 dB -6.70 dB 3:08 08-Convince Me Otherwise
DR5 -0.20 dB -7.93 dB 3:31 09-Nobody's Love
DR3 -0.20 dB -6.51 dB 3:17 10-Can't Leave You Alone
DR8 -0.20 dB -9.56 dB 3:09 11-Memories
DR7 -0.20 dB -9.34 dB 3:09 12-Memories Remix
DR6 -0.20 dB -8.30 dB 2:44 13-Button
––––––––––––––––––––––––––––––––––––––––

Number of tracks: 13
Official DR value: DR5

Samplerate: 44100 Hz
Channels: 2
Bits per sample: 24
Bitrate: 1657 kbps
Codec: FLAC
================================================================================



Thanks to the Original customer.