Nicolas Koeckert - Marteau, Vol. 4: Violin Concerto in C Major, Op. 18 & Serenade, Op. 20 (2019) [Official Digital Download]

Posted By: SERTiL
Nicolas Koeckert - Marteau, Vol. 4: Violin Concerto in C Major, Op. 18 & Serenade, Op. 20 (2019) [Official Digital Download]

Nicolas Koeckert, Deutsche Radio Philharmonie Orchestra & Raoul Grüneis - Marteau, Vol. 4: Violin Concerto in C Major, Op. 18 & Serenade, Op. 20 (2019)
FLAC (tracks) 24-bit/48 kHz | Time - 64:27 minutes | 655 MB
Studio Master, Official Digital Download | Artwork: Digital Booklet

Henri Marteau (1874-1934) was one of the most important violin and violin teachers of the early twentieth century. His compositional work found little attention despite some respectable successes.

Since 1982, the International Music Center Haus Marteau of the district of Upper Franconia maintains the artistic legacy of the German-French Composer in the form of master classes for musical talents from all over the world, publications on life and work as well as recordings of selected compositions on phonograms.

Missing are the autograph and the orchestral libretto from Marteau’s Violin Concerto op. 18. Raoul Grüneis re-orchestrated the work with the help of the piano reduction and a rehearsal recording by the WDR Symphony Orchestra. Enthusiasm among the audience and critics awoke the premiere of this version. The work sends the listener more impressively home than many other violin concertos established in the repertoire, Torsten Kohlschein judged in the Freie Presse.

WORLDPREMIERE RECORDING: Nicolas Koeckert and the Radiophilharmonie Saarbrücken Kaiserslautern conducted by Raoul Grüneis presents a brilliant first recording of this work combined with the Serenade op. 20 released by Solo Musica.

Tracklist:
01. Violin Concerto in C Major, Op. 18: I. Allegro risoluto-Allegro energico, ma non troppo
02. Violin Concerto in C Major, Op. 18: II. Adagio
03. Violin Concerto in C Major, Op. 18: III. Rondo. Allegro con fuoco, ma non troppo
04. Serenade, Op. 20: I. Entrata
05. Serenade, Op. 20: II. Adagietto
06. Serenade, Op. 20: III. Scherzino
07. Serenade, Op. 20: IV. Tema con variazioni

Personnel:
Nicolas Koeckert, violin
Deutsche Radio Philharmonie
Raoul Grüneis, conductor

foobar2000 1.3.7 / Dynamic Range Meter 1.1.1
log date: 2019-01-11 13:07:11

––––––––––––––––––––––––––––––––––––––––
Analyzed: German Radio Saarbrücken-Kaiserslautern Philharmonic Orchestra, Raoul Grüneis / Marteau, Vol. 4: Violin Concerto in C Major, Op. 18 & Serenade, Op. 20
––––––––––––––––––––––––––––––––––––––––

DR Peak RMS Duration Track
––––––––––––––––––––––––––––––––––––––––
DR15 -0.12 dB -20.44 dB 23:09 01-Violin Concerto in C Major, Op. 18: I. Allegro risoluto - Allegro energico, ma non troppo
DR16 -0.14 dB -22.54 dB 10:45 02-Violin Concerto in C Major, Op. 18: II. Adagio
DR16 -0.10 dB -21.75 dB 14:04 03-Violin Concerto in C Major, Op. 18: III. Rondo. Allegro con fuoco, ma non troppo
DR13 -5.81 dB -24.40 dB 2:39 04-Serenade, Op. 20: I. Entrata
DR12 -8.82 dB -25.37 dB 3:47 05-Serenade, Op. 20: II. Adagietto
DR13 -8.56 dB -26.07 dB 2:32 06-Serenade, Op. 20: III. Scherzino
DR14 -4.91 dB -24.08 dB 7:33 07-Serenade, Op. 20: IV. Tema con variazioni
––––––––––––––––––––––––––––––––––––––––

Number of tracks: 7
Official DR value: DR14

Samplerate: 48000 Hz
Channels: 2
Bits per sample: 24
Bitrate: 1309 kbps
Codec: FLAC
================================================================================


Thanks to the Original customer.