Marvin Gaye - How Sweet It Is To Be Loved By You (1966/2021) [Official Digital Download 24/192]

Posted By: pyatak
Marvin Gaye - How Sweet It Is To Be Loved By You (1966/2021) [Official Digital Download 24/192]

Marvin Gaye - How Sweet It Is To Be Loved By You (1966/2021) [Official Digital Download 24/192]
FLAC (tracks) 24-bit/192 kHz | Front Cover | Time - 32:38 minutes | 1,37 GB
Soul | Label: Motown Records, Official Digital Download

How Sweet It Is to Be Loved by You is the fifth studio album released by American singer and songwriter Marvin Gaye, released in 1965. The album features the successful title track, which at the time was his best-selling single. Other hits include "Try It Baby" (which features The Temptations) and "Baby Don't You Do It" (with backing vocals provided by The Andantes).

TRACKLIST

1. Marvin Gaye - You're A Wonderful One
2. Marvin Gaye - How Sweet It Is (To Be Loved By You)
3. Marvin Gaye - Try It Baby
4. Marvin Gaye - Baby Don't You Do It
5. Marvin Gaye - Need Your Lovin' (Want You Back)
6. Marvin Gaye - One Of These Days
7. Marvin Gaye - No Good Without You
8. Marvin Gaye - Stepping Closer To Your Heart
9. Marvin Gaye - Need Somebody
10. Marvin Gaye - Me And My Lonely Room
11. Marvin Gaye - Now That You've Won Me
12. Marvin Gaye - Forever

foobar2000 1.6.2 / Dynamic Range Meter 1.1.1
log date: 2021-03-26 18:35:37

––––––––––––––––––––––––––––––––––––––––
Analyzed: Marvin Gaye / How Sweet It Is To Be Loved By You
––––––––––––––––––––––––––––––––––––––––

DR Peak RMS Duration Track
––––––––––––––––––––––––––––––––––––––––
DR9 -0.29 dB -11.16 dB 2:44 01-You're A Wonderful One
DR11 -0.29 dB -12.08 dB 3:00 02-How Sweet It Is (To Be Loved By You)
DR9 -0.29 dB -10.76 dB 2:52 03-Try It Baby
DR10 -0.29 dB -11.81 dB 2:41 04-Baby Don't You Do It
DR10 -0.29 dB -11.96 dB 2:18 05-Need Your Lovin' (Want You Back)
DR10 -0.29 dB -11.59 dB 3:00 06-One Of These Days
DR10 -0.29 dB -11.82 dB 2:44 07-No Good Without You
DR9 -0.29 dB -12.42 dB 2:42 08-Stepping Closer To Your Heart
DR10 -0.29 dB -12.43 dB 2:52 09-Need Somebody
DR10 -0.29 dB -12.27 dB 2:52 10-Me And My Lonely Room
DR10 -0.29 dB -11.78 dB 2:41 11-Now That You've Won Me
DR11 -0.29 dB -13.31 dB 2:21 12-Forever
––––––––––––––––––––––––––––––––––––––––

Number of tracks: 12
Official DR value: DR10

Samplerate: 192000 Hz
Channels: 2
Bits per sample: 24
Bitrate: 5821 kbps
Codec: FLAC
================================================================================



Thanks to the Original customer.