Marvin Gaye - A Tribute To The Great Nat King Cole (1965/2021) [Official Digital Download 24/192]

Posted By: pyatak
Marvin Gaye - A Tribute To The Great Nat King Cole (1965/2021) [Official Digital Download 24/192]

Marvin Gaye - A Tribute To The Great Nat King Cole (1965/2021) [Official Digital Download 24/192]
FLAC (tracks) 24-bit/192 kHz | Front Cover | Time - 35:53 minutes | 1,49 GB
Soul | Label: UNI/MOTOWN, Official Digital Download

A Tribute to the Great Nat "King" Cole is the sixth studio album by Marvin Gaye. It is a tribute album, dedicated to his idol, late jazz performer Nat "King" Cole, who had died of lung cancer earlier in the year.

It was on Monday, 15 February 1965 when the popular American singer and pianist Nat King Cole fatally succumbed to lung cancer. He was just 45 years old. His passing would be commemorated later that year, on 1 November, by a tribute album from a young man – then a rising star of Motown – who himself would also perish prematurely in his mid-40s. His name was Marvin Gaye.

Gaye was 26 when he went into Motown’s Hitsville studios in Detroit to pay his musical respects to one of his singing idols. By then, the young singer had already notched up two US R&B No.1s (‘I’ll Be Doggone’ and ‘Ain’t That Peculiar’) as well as a string of other chart entries. His career was in the ascendant, and the thinking behind recording an album devoted to songs associated with Nat King Cole was not only to doff his cap to a musician whom he greatly admired, but also to show another side of his musical personality and, more importantly – at least from Motown’s perspective – gain a valuable foothold in America’s lucrative supper club market.

Though a singer whose musical roots were deeply embedded in gospel music, in his personal tastes Gaye gravitated towards jazz and, for a long time, harboured aspirations to be the African-American Frank Sinatra. Initially, Motown’s boss, Berry Gordy, indulged Gaye’s ambition to be a middle-of-the-road entertainer, as long as he cut some hit R&B sides in the process. A Tribute To The Great Nat King Cole, then, wasn’t Gaye’s first foray into jazz territory; it was, in fact, the singer’s third attempt at an MOR album, following When I’m Alone I Cry and Hello Broadway, both collections of standards released by Motown in 1964.

Produced by Hal Davis, Marc Gordon and Harvey Fuqua, Gaye’s Nat King Cole tribute opens with a glorious cover of the eden abhez-written ‘Nature Boy’, Cole’s first record to cross over and top the US pop charts, in 1948. Bathed in lush orchestration, Gaye’s silky voice, despite being different in tone and texture from Cole’s, reveals the influence of the Alabama-born singer via its ultra-smooth phrasing.

TRACKLIST

1. Marvin Gaye - Nature Boy
2. Marvin Gaye - Ramblin Rose
3. Marvin Gaye - Too Young
4. Marvin Gaye - Pretend
5. Marvin Gaye - Straighten Up And Fly Right
6. Marvin Gaye - Mona Lisa
7. Marvin Gaye - Unforgettable
8. Marvin Gaye - To The Ends Of The Earth
9. Marvin Gaye - Sweet Lorraine
10. Marvin Gaye - It's Only A Paper Moon
11. Marvin Gaye - Send For Me
12. Marvin Gaye - Calypso Blues

foobar2000 1.6.2 / Dynamic Range Meter 1.1.1
log date: 2021-03-26 22:57:41

––––––––––––––––––––––––––––––––––––––––
Analyzed: Marvin Gaye / A Tribute To The Great Nat King Cole
––––––––––––––––––––––––––––––––––––––––

DR Peak RMS Duration Track
––––––––––––––––––––––––––––––––––––––––
DR9 -0.29 dB -11.72 dB 2:50 01-Nature Boy
DR10 -0.29 dB -11.50 dB 2:51 02-Ramblin Rose
DR9 -0.29 dB -11.41 dB 3:48 03-Too Young
DR10 -0.29 dB -12.53 dB 2:50 04-Pretend
DR10 -0.29 dB -11.20 dB 2:24 05-Straighten Up And Fly Right
DR9 -0.29 dB -11.41 dB 3:04 06-Mona Lisa
DR9 -0.29 dB -12.19 dB 3:42 07-Unforgettable
DR9 -0.29 dB -10.48 dB 2:18 08-To The Ends Of The Earth
DR9 -0.29 dB -11.60 dB 2:49 09-Sweet Lorraine
DR9 -0.29 dB -10.28 dB 2:27 10-It's Only A Paper Moon
DR10 -0.29 dB -12.57 dB 2:58 11-Send For Me
DR10 -0.29 dB -11.67 dB 4:06 12-Calypso Blues
––––––––––––––––––––––––––––––––––––––––

Number of tracks: 12
Official DR value: DR9

Samplerate: 192000 Hz
Channels: 2
Bits per sample: 24
Bitrate: 6049 kbps
Codec: FLAC
================================================================================



Thanks to the Original customer.