Marvin Gaye - Greatest Hits (1964/2021) [Official Digital Download 24/192]

Posted By: pyatak
Marvin Gaye - Greatest Hits (1964/2021) [Official Digital Download 24/192]

Marvin Gaye - Greatest Hits (1964/2021) [Official Digital Download 24/192]
FLAC (tracks) 24-bit/192 kHz | Front Cover | Time - 31:13 minutes | 1,33 GB
Soul | Label: UNI/MOTOWN, Official Digital Download

Greatest Hits is a 1964 greatest hits album, the first for American R&B-soul singer Marvin Gaye.

Released during Gaye's first period of success, it was also his first charted album as a solo artist after making his album chart debut with the Mary Wells duet album, Together, the same year.

Three of the singles, "Sandman", "Can I Get a Witness" (also featuring that song's B-side, "I'm Crazy 'bout My Baby"), and "You're a Wonderful One", were non-album tracks that made it to release on this particular album.

TRACKLIST

1. Marvin Gaye - Can I Get A Witness (Stereo Version)
2. Marvin Gaye - You're A Wonderful One
3. Marvin Gaye - Stubborn Kind Of Fellow (Album Version / Stereo)
4. Marvin Gaye - I'm Crazy 'Bout My Baby
5. Marvin Gaye - Pride And Joy
6. Marvin Gaye - Hitch Hike (Album Version / Stereo)
7. Marvin Gaye - Mr. Sandman (Mono Single)
8. Marvin Gaye - Hello There Angel
9. Marvin Gaye - One Of These Days
10. Marvin Gaye - I'm Yours, You're Mine (Mono Single)
11. Marvin Gaye - Taking My Time (Mono Single)
12. Marvin Gaye - It Hurt Me Too

foobar2000 1.6.2 / Dynamic Range Meter 1.1.1
log date: 2021-03-27 13:22:43

––––––––––––––––––––––––––––––––––––––––
Analyzed: Marvin Gaye / Greatest Hits
––––––––––––––––––––––––––––––––––––––––

DR Peak RMS Duration Track
––––––––––––––––––––––––––––––––––––––––
DR10 -0.20 dB -11.37 dB 2:51 01-Can I Get A Witness (Stereo Version)
DR11 -0.20 dB -12.45 dB 2:47 02-You're A Wonderful One
DR11 -0.20 dB -12.12 dB 2:48 03-Stubborn Kind Of Fellow (Album Version / Stereo)
DR10 -0.20 dB -11.86 dB 2:40 04-I'm Crazy 'Bout My Baby
DR11 -0.20 dB -12.71 dB 2:07 05-Pride And Joy
DR10 -0.20 dB -11.77 dB 2:30 06-Hitch Hike (Album Version / Stereo)
DR11 -0.20 dB -12.08 dB 2:32 07-Mr. Sandman (Mono Single)
DR10 -0.20 dB -11.50 dB 2:39 08-Hello There Angel
DR11 -0.20 dB -12.84 dB 2:58 09-One Of These Days
DR11 -0.20 dB -12.11 dB 1:52 10-I'm Yours, You're Mine (Mono Single)
DR10 -0.20 dB -11.93 dB 2:22 11-Taking My Time (Mono Single)
DR10 -0.20 dB -12.00 dB 3:00 12-It Hurt Me Too
––––––––––––––––––––––––––––––––––––––––

Number of tracks: 12
Official DR value: DR10

Samplerate: 192000 Hz
Channels: 2
Bits per sample: 24
Bitrate: 6165 kbps
Codec: FLAC
================================================================================



Thanks to the Original customer.