Maurizio Zaccaria - Massenet: Integrale Piano Music (2016) [TR24][OF]

Posted By: SERTiL
Maurizio Zaccaria - Massenet: Integrale Piano Music (2016) [TR24][OF]

Maurizio Zaccaria - Massenet: Integrale Piano Music
Classical | FLAC (tracks) 24-bit/88.2 kHz | 79:39 min | 1.23 GB | Front Cover
Label: AEVEA Classics | Tracks: 29 | Rls.date: 2016

Amongst the operas, the orchestral works and the songs, for which he is very well known, Jules Émile Frédéric Massenet (1842-1912) also wrote a piano concerto and various piano pieces. These include a cycle of Improvisations, Ten pieces "de genre" (Op. 10), 2 Valses, 2 Impressions, and some other separated pieces. It can be identified with relative ease the Melodie, alas 'Elégie', the famous song. The CD also include the recording of two transcriptions derived from famous Massenet's melodies: the Meditation from 'Thais', and the 'Aragonaise' from 'Le Cid'. The character of Massenet's music here is mostly cantabile with some virtuoso and fast pieces which give a great variety to the series.
Maurizio Zaccaria is a young talenet from Bari with a great technical ease and interpretive ability. Aldo Ciccolini wrote about him: "This evening I’ve had the great joy to play with young Maurizio Zaccaria performing Rachmaninoff’s Third piano concerto, which is really very difficult. I think that Maurizio Zaccaria is a pianist endowed with rare technical and musical means. His interpretation was moving! I wish him a brilliant carrier. He’s worth of it".
The recordings has been captured in the wonderful theatre of Atri, Teramo, using 6 microphones (Neumann and Sennheiser) and Prism Sound top-class equipment.

TRACKLIST
1 Valse folle
2 Dix pieces de genre, Op. 10 - I. Nocturne
3 Dix pieces de genre, Op. 10 - II. Marche
4 Dix pieces de genre, Op. 10 - III. Barcarolle
5 Dix pieces de genre, Op. 10 - IV. Rigodon
6 Dix pieces de genre, Op. 10 - V. Melodie (Elegie)
7 Dix pieces de genre, Op. 10 - VI. Saltarello
8 Dix pieces de genre, Op. 10 - VII. Vieille chanson
9 Dix pieces de genre, Op. 10 - VIII. Legende
10 Dix pieces de genre, Op. 10 - IX. Fughetta
11 Dix pieces de genre, Op. 10 - X. Carillon
12 Musique pour bercer les petits enfants
13 Toccata
14 Deux impressions - I. Eau dormante
15 Deux impressions - I. Eau courante
16 Valse tres lente
17 Deux pieces pour piano - I. Papillons noir
18 Deux pieces pour piano - II. Papillons blancs
19 Un Momento musicale
20 Improvisations - I.
21 Improvisations - II.
22 Improvisations - III.
23 Improvisations - IV.
24 Improvisations - V.
25 Improvisations - VI.
26 Improvisations - VII.
27 Devant la Madone
28 Aragonaise from 'Le Cid', transcription
29 Meditation from 'Thais', transcription

foobar2000 1.3.7 / Замер динамического диапазона (DR) 1.1.1
Дата отчёта: 2017-02-01 19:49:06

––––––––––––––––––––––––––––––––––––––––
Анализ: Maurizio Zaccaria, Performer - Anonymous, Composer - Jules Massenet, Composer / Maurizio Zaccaria : Massenet: Piano Works (1-2)
Maurizio Zaccaria, Performer - Jules Massenet, Composer / Maurizio Zaccaria : Massenet: Piano Works (3-29)
––––––––––––––––––––––––––––––––––––––––

DR Пики RMS Продолжительность трека
––––––––––––––––––––––––––––––––––––––––
DR13 0.00 дБ -17.35 дБ 1:32 28-Le Cid:Le Cid: Le Cid: Aragonaise (arr. for piano)
DR14 -4.28 дБ -26.27 дБ 4:57 29-Thaïs:Thaïs: Thais, Act II: Meditation (arr. for piano)
DR13 -0.41 дБ -18.44 дБ 2:40 1-Valse folle
DR13 -13.94 дБ -31.35 дБ 2:30 2-10 Pièces de genre, Op. 10:10 Pièces de genre, Op. 10: No. 1. Nocturne
DR14 -0.58 дБ -19.76 дБ 3:00 3-10 Pièces de genre, Op. 10:10 Pièces de genre, Op. 10: No. 2. Marche
DR14 -11.28 дБ -32.08 дБ 2:16 4-10 Pièces de genre, Op. 10:10 Pièces de genre, Op. 10: No. 3. Barcarolle
DR14 -2.68 дБ -21.70 дБ 1:47 5-10 Pièces de genre, Op. 10:10 Pièces de genre, Op. 10: No. 4. Rigodon
DR11 -11.61 дБ -29.54 дБ 2:00 6-10 Pièces de genre, Op. 10:10 Pièces de genre, Op. 10: No. 5. Melodie
DR13 -3.36 дБ -22.62 дБ 1:12 7-10 Pièces de genre, Op. 10:10 Pièces de genre, Op. 10: No. 6. Saltarello
DR12 -10.90 дБ -27.49 дБ 2:00 8-10 Pièces de genre, Op. 10:10 Pièces de genre, Op. 10: No. 7. Vieille chanson
DR13 -6.90 дБ -28.36 дБ 2:34 9-10 Pièces de genre, Op. 10:10 Pièces de genre, Op. 10: No. 8. Legende
DR12 -5.05 дБ -25.71 дБ 1:40 10-10 Pièces de genre, Op. 10:10 Pièces de genre, Op. 10: No. 9. Fughetta
DR11 -3.89 дБ -18.43 дБ 1:41 11-10 Pièces de genre, Op. 10:10 Pièces de genre, Op. 10: No. 10. Carillon
DR14 -16.00 дБ -37.10 дБ 2:39 12-Musique pour bercer les petits enfants
DR13 -1.76 дБ -19.47 дБ 2:03 13-Toccata
DR13 -13.63 дБ -35.77 дБ 3:50 14-2 Impromptus:2 Impromptus: No. 1. Eau dormante
DR12 -7.01 дБ -25.33 дБ 2:10 15-2 Impromptus:2 Impromptus: No. 2. Eau courante
DR14 -12.07 дБ -32.63 дБ 5:55 16-Valse tres lente
DR12 -5.26 дБ -24.22 дБ 1:29 17-2 Pièces pour piano:2 Pièces pour piano: No. 1. Papillons noirs
DR14 -4.39 дБ -26.11 дБ 2:44 18-2 Pièces pour piano:2 Pièces pour piano: No. 2. Papillons blancs
DR15 -2.87 дБ -24.38 дБ 4:01 19-Un memento musicale
DR11 -12.45 дБ -29.06 дБ 1:50 20-Improvisations:Improvisations: I. Andantino
DR11 -9.30 дБ -27.31 дБ 3:02 21-Improvisations:Improvisations: II. Allegretto con grazia - con moto
DR15 -4.35 дБ -27.30 дБ 2:13 22-Improvisations:Improvisations: III. Triste et lent
DR15 -9.95 дБ -29.28 дБ 5:00 23-Improvisations:Improvisations: IV. Allegretto scherzando
DR13 -8.71 дБ -28.82 дБ 2:17 24-Improvisations:Improvisations: V. Andante cantabile espressivo
DR11 -1.95 дБ -18.60 дБ 3:12 25-Improvisations:Improvisations: VI. Allegro deciso con moto
DR14 -5.23 дБ -26.03 дБ 4:18 26-Improvisations:Improvisations: VII. Allegretto
DR15 -10.14 дБ -31.68 дБ 3:24 27-Devant la Madone
––––––––––––––––––––––––––––––––––––––––

Количество треков: 29
Реальные значения DR: DR13

Частота: 88200 Гц
Каналов: 2
Разрядность: 24
Битрейт: 2124 кбит/с
Кодек: FLAC
================================================================================


Thanks to the Original customer.