Max Richter - My Brilliant Friend (TV Series Soundtrack) (2018) [Official Digital Download]

Posted By: pyatak
Max Richter - My Brilliant Friend (TV Series Soundtrack) (2018) [Official Digital Download]

Max Richter - My Brilliant Friend (TV Series Soundtrack) (2018) [Official Digital Download]
FLAC (tracks) 24-bit/48 kHz | Front Cover | Time - 36:15 minutes | 360 MB
Soundtracks | Label: Deutsche Grammophon, Official Digital Download

Max Richter (The Leftovers, Taboo, Waltz with Bashir, Hostiles).has composed the original music for the upcoming HBO and RAI original series My Brilliant Friend (L’amica geniale). The show is co-written and directed by Saverio Costanzo (Private, The Solitude of Prime Numbers, Hungry Hearts) and stars Elisa Del Genio, Ludovica Nasti, Margherita Mazzucco and Gaia Girace. The drama is based on Elena Ferrante’s bestselling book of the same name and tells the story of a now-elderly woman who discovers the most important friend in her life seems to have disappeared without a trace. Lorenzo Mieli & Mario Gianani and Domenico Procacci are executive producing the HBO, RAI FICTION and TIMVISION production.

TRACKLIST

1. Max Richter - Elena & Lila
2. Max Richter - Whispers
3. Max Richter - Your Reflection
4. Max Richter - The Days Go By
5. Max Richter - Interior Dialogues
6. Max Richter - In The Dark
7. Max Richter - In Spite Of All
8. Max Richter - Brilliant Clouds
9. Max Richter - In Remembrance Of You
10. Max Richter - Shimmering Clouds
11. Max Richter - She Was Running
12. Max Richter - Our Reflection

foobar2000 1.3.16 / Dynamic Range Meter 1.1.1
log date: 2018-12-07 02:44:25

––––––––––––––––––––––––––––––––––––––––
Analyzed: Max Richter / My Brilliant Friend (TV Series Soundtrack)
––––––––––––––––––––––––––––––––––––––––

DR Peak RMS Duration Track
––––––––––––––––––––––––––––––––––––––––
DR9 -0.12 dB -16.35 dB 4:54 01-Elena & Lila
DR12 -0.11 dB -18.17 dB 3:41 02-Whispers
DR11 -3.12 dB -17.79 dB 3:36 03-Your Reflection
DR13 -0.96 dB -17.78 dB 2:43 04-The Days Go By
DR9 -8.32 dB -21.54 dB 1:37 05-Interior Dialogues
DR10 -0.12 dB -14.77 dB 2:31 06-In The Dark
DR11 -1.96 dB -17.32 dB 2:10 07-In Spite Of All
DR9 -17.52 dB -31.22 dB 1:11 08-Brilliant Clouds
DR12 -0.90 dB -17.22 dB 4:58 09-In Remembrance Of You
DR10 -11.74 dB -25.50 dB 1:15 10-Shimmering Clouds
DR11 -3.30 dB -19.15 dB 2:09 11-She Was Running
DR8 -0.08 dB -12.10 dB 5:35 12-Our Reflection
––––––––––––––––––––––––––––––––––––––––

Number of tracks: 12
Official DR value: DR10

Samplerate: 48000 Hz
Channels: 2
Bits per sample: 24
Bitrate: 1514 kbps
Codec: FLAC
================================================================================



Thanks to the Original customer.