Mélusine ‎– Lève-Toi Et Danse (1977) Polydor / 2473074 Gatefold - LP/FLAC In 24bit/96kHz

Posted By: Fran Solo
Mélusine ‎– Lève-Toi Et Danse (1977) Polydor / 2473074 Gatefold - LP/FLAC In 24bit/96kHz

Mélusine ‎– Lève-Toi Et Danse
Vinyl | LOG | CUE | FLAC | Tags | Full LP Cover (1:1)
24bit/96kHz: 795mb - 16bit/44kHz: 248mb
Genre: Breton-Folk | Label: Polydor / 2473074 | Release: 1977
Mélusine ‎– Lève-Toi Et Danse (1977) Polydor / 2473074 Gatefold - LP/FLAC In 24bit/96kHz

Mélusine ‎– Lève-Toi Et Danse (1977) Polydor / 2473074 Gatefold - LP/FLAC In 24bit/96kHz

Mélusine ‎– Lève-Toi Et Danse (1977) Polydor / 2473074 Gatefold - LP/FLAC In 24bit/96kHz

Side A
1. Rondeaux
2. a) Laridé - Trif Aladridondaine
En Dro
3. a) Gervaise Pipal
b) Mari-Katellig, Pelechez Oc'h Hu Bet
c )Al Losteen Turturuillet
Bourrées A Deux Temps
4.a) La Brande
b) La Carrée De Montgusty
5. Rond D'Argenton - Viendrez-Vous Jolie Meunière
Bourrées D'Auvergne
6.a) Chez Le Bon Dieu
b) Chez Maud Almane
Side B
Polkas
1.a) Le Turlubino
b) Polka D'Olivia
En Avant Deux
2.a) En Avant Deux De Travers
b) En Avant Deux De Ploeuc
3. Rond De Saint Vincent - La Petite Lingère
4. Cercle Circassien
Mazurka - Marzurka-Valse - Valse
5.a) Mazurka D'Auvergne
b) Patrick Et Beline
c) La Valse De Montseugny

–––––––––––––––––––––––––––––––––––––––––––––––
Analyzed folder: Melusine ‎– Leve Toi Et Danse (LP)
–––––––––––––––––––––––––––––––––––––––––––––––
DR Peak RMS Filename
–––––––––––––––––––––––––––––––––––––––––––––––

DR12 -4.36 dB -19.37 dB 01 Melusine - LADO A- Rondeaux.wav
DR13 -5.26 dB -19.75 dB 02 Melusine - Laride - Trif Aladridondaine.wav
DR11 -9.03 dB -23.78 dB 03 Melusine - En Dro (3 parts).wav
DR12 -5.77 dB -20.22 dB 04 Melusine - Bourrees A Deux Temps (2 parts).wav
DR14 -6.38 dB -22.83 dB 05 Melusine - Rond D'Argenton - Viendrez-Vous Jolie Meuniere.wav
DR11 -3.88 dB -17.73 dB 06 Melusine - Bourrees D'Auvergne (2 parts).wav
DR15 -1.64 dB -18.89 dB 07 Melusine - LADO B- Polkas (2 parts).wav
DR14 -4.16 dB -20.05 dB 08 Melusine - En Avant Deux (2 parts).wav
DR13 -4.14 dB -19.96 dB 09 Melusine - Rond De Saint Vincent - La Petite Lingere.wav
DR13 -6.15 dB -21.86 dB 10 Melusine - Cercle Circassien.wav
DR13 -4.49 dB -19.50 dB 11 Melusine - Mazurka - Marzurka-Valse - Valse.wav
–––––––––––––––––––––––––––––––––––––––––––––––

Number of files: 11
Official DR value: DR13

==============================================================================================

Pure Analog Rip
Direct Drive Turntable: Marantz 6170
Cartridge: SHURE M97xE
Amplifier: Sansui 9090DB
Cleaning
Moth MkII Pro Vinyl Record Cleaning Machine
LE-BO Magnetic Record Cleaner – PICKERING Antistatic Carbon Fibre
Edition
Adobe Audition CS 5.5 – xACT & XLD (lossless)
Redbook Conversion: Izotope RX Advanced
Clickrepair with Izotope RX Advanced
Full Scan & Corrected LP Cover and LP Rip: Fran Solo
Password: WITHOUT PASSWORD

Mélusine is a French folk group founded in 1972 by Jean-François Dutertre (vocals, spruce Vosges …), Jean-Loup Baly (vocals, accordion …) and Yvon Guilcher (vocals, bagpipes …) , joined later by Jacques Mayoud (vocals, violin, rebec …), former member of La Bamboche.
The repertoire of songs and tunes Melusine mixes pieces collected from traditional musicians in some works of the Middle Ages. The group has also composed some songs for a musical interest real lap times slightly "gaguesque." The interpretation and arrangements, although very free, stand close to the tradition, not the letter but in the spirit (unlike their main "competitor" Malice).
In his latest opus, Voice Contrevoix, the group focused on the only polyphonic vocal work. This direction is more sensitive in its recent reformation during some concerts.
wikipedia.org
This LP is a gift from my good friend polux, merci beaucoup!
Welcome to the Dark Side of the Vinyl

Vinyl / LOG/ CUE/ FLAC/ High Definition Cover - 795mb RAR & 248mb ZIP:
Uploaded 2496
Part 1
Part 2
Part 3

MirrorCreator (Rapidshare - Hotfile -Uploaded… etc.) 2496
Part 1
Part 2
Part 3

FileFactory 2496
Part 1
Part 2
Part 3

1644