Tags
Language
Tags

Metallica - Metallica (Remastered Deluxe Box Set - Explicit) (1991/2021) [Official Digital Download]

Posted By: pyatak
Metallica - Metallica (Remastered Deluxe Box Set - Explicit) (1991/2021) [Official Digital Download]

Metallica - Metallica (Remastered Deluxe Box Set - Explicit) (1991/2021) [Official Digital Download]
FLAC (tracks) 24-bit/44.1 kHz | Front Cover | Time - 15:36:41 minutes | 10,41 GB
Hard Rock, Metal | Label: EMI, Official Digital Download

In celebration of 30 years of The Black Album, welcome the definitive re-release: Metallica (Remastered).

This reissue is remastered for ultimate sound quality and will be available in several configurations to suit every music fan’s preference on September 10th. Pre-order your copy now!

TRACKLIST

1. Metallica - Enter Sandman (Remastered 2021)
2. Metallica - Sad But True (Remastered 2021)
3. Metallica - Holier Than Thou (Remastered 2021)
4. Metallica - The Unforgiven (Remastered 2021)
5. Metallica - Wherever I May Roam (Remastered 2021)
6. Metallica - Don't Tread on Me (Remastered 2021)
7. Metallica - Through the Never (Remastered 2021)
8. Metallica - Nothing Else Matters (Remastered 2021)
9. Metallica - Of Wolf and Man (Remastered 2021)
10. Metallica - The God That Failed (Remastered 2021)
11. Metallica - My Friend of Misery (Remastered 2021)
12. Metallica - The Struggle Within (Remastered 2021)
13. Metallica - Enter Sandman (Live at Wembley Stadium, London, England / April 20th, 1992)
14. Metallica - Sad But True (Live at Wembley Stadium, London, England / April 20th, 1992)
15. Metallica - Nothing Else Matters (Live at Wembley Stadium, London, England / April 20th, 1992)
16. Metallica - The Ecstasy of Gold (Live at Tushino Airfield, Moscow, Russia / September 28th, 1991)
17. Metallica - Enter Sandman (Live at Tushino Airfield, Moscow, Russia / September 28th, 1991)
18. Metallica - Creeping Death (Live at Tushino Airfield, Moscow, Russia / September 28th, 1991)
19. Metallica - Harvester of Sorrow (Live at Tushino Airfield, Moscow, Russia / September 28th, 1991)
20. Metallica - Fade to Black (Live at Tushino Airfield, Moscow, Russia / September 28th, 1991)
21. Metallica - Sad But True (Live at Tushino Airfield, Moscow, Russia / September 28th, 1991)
22. Metallica - Master of Puppets (Live at Tushino Airfield, Moscow, Russia / September 28th, 1991)
23. Metallica - Seek & Destroy (Live at Tushino Airfield, Moscow, Russia / September 28th, 1991)
24. Metallica - For Whom the Bell Tolls (Live at Tushino Airfield, Moscow, Russia / September 28th, 1991)
25. Metallica - One (Live at Tushino Airfield, Moscow, Russia / September 28th, 1991)
26. Metallica - Whiplash (Live at Tushino Airfield, Moscow, Russia / September 28th, 1991)
27. Metallica - Encore Jam (Live at Tushino Airfield, Moscow, Russia / September 28th, 1991)
28. Metallica - Last Caress (Live at Tushino Airfield, Moscow, Russia / September 28th, 1991)
29. Metallica - Am I Evil? (Live at Tushino Airfield, Moscow, Russia / September 28th, 1991)
30. Metallica - Battery (Live at Tushino Airfield, Moscow, Russia / September 28th, 1991)
31. Metallica - The Unforgiven (From James' Riff Tapes)
32. Metallica - Nothing Else Matters (From James' Riff Tapes)
33. Metallica - Sad But True (From James' Riff Tapes)
34. Metallica - Holier Than Thou (From James' Riff Tapes)
35. Metallica - Don't Tread on Me (From James' Riff Tapes)
36. Metallica - The Unforgiven (From James' Riff Tapes II)
37. Metallica - The Struggle Within (From James' Riff Tapes)
38. Metallica - The Unforgiven (From James' Riff Tapes III)
39. Metallica - The God That Failed (From James' Riff Tapes)
40. Metallica - Wherever I May Roam (From James' Riff Tapes)
41. Metallica - Enter Sandman (From Kirk's Riff Tapes)
42. Metallica - Through the Never (From Kirk's Riff Tapes)
43. Metallica - Of Wolf and Man (From Kirk's Riff Tapes)
44. Metallica - Enter Sandman (From Kirk's Riff Tapes II)
45. Metallica - My Friend of Misery (From Jason's Riff Tapes)
46. Metallica - Enter Sandman (July 6th, 1990, Writing in Progress)
47. Metallica - Sad But True (July 6th, 1990, Writing in Progress)
48. Metallica - The God That Failed (July 6th, 1990, Writing in Progress)
49. Metallica - Don't Tread on Me (July 6th, 1990, Writing in Progress)
50. Metallica - The Struggle Within (July 6th, 1990, Writing in Progress)
51. Metallica - Holier Than Thou (July 6th, 1990, Writing in Progress)
52. Metallica - Sad But True (July 10th, 1990, Writing in Progress)
53. Metallica - Sad But True (July 12th, 1990, Demo)
54. Metallica - Don't Tread on Me (July 12th, 1990, Demo)
55. Metallica - Enter Sandman (July 12th, 1990, Demo)
56. Metallica - Nothing Else Matters (July 12th, 1990, Demo)
57. Metallica - Of Wolf and Man (July 12th, 1990, Writing in Progress)
58. Metallica - Through the Never (July 12th, 1990, Writing in Progress)
59. Metallica - The Struggle Within (July 24th, 1990, Writing in Progress)
60. Metallica - Wherever I May Roam (July 24th, 1990, Writing in Progress)
61. Metallica - Wherever I May Roam (July 30th, 1990, Writing in Progress)
62. Metallica - The Struggle Within (July 30th, 1990, Writing in Progress)
63. Metallica - Enter Sandman (August 13th, 1990, Demo)
64. Metallica - Sad But True (August 13th, 1990, Demo)
65. Metallica - Don't Tread on Me (August 13th, 1990, Demo)
66. Metallica - Nothing Else Matters (August 13th, 1990, Demo)
67. Metallica - Holier Than Thou (August 13th, 1990, Demo)
68. Metallica - Wherever I May Roam (August 13th, 1990, Demo)
69. Metallica - The Struggle Within (August 13th, 1990, Demo)
70. Metallica - The God That Failed (August 22nd, 1990, Writing in Progress)
71. Metallica - Of Wolf and Man (August 22nd, 1990, Writing in Progress)
72. Metallica - My Friend of Misery (August 29th, 1990, Writing in Progress)
73. Metallica - The Unforgiven (August 29th, 1990, Writing in Progress)
74. Metallica - Through the Never (August 31st, 1990, Demo)
75. Metallica - Of Wolf and Man (August 31st, 1990, Demo)
76. Metallica - The God That Failed (August 31st, 1990, Demo)
77. Metallica - The Unforgiven (September 3rd, 1990, Writing in Progress)
78. Metallica - My Friend of Misery (September 3rd, 1990, Writing in Progress)
79. Metallica - Enter Sandman (Pre-Production Rehearsal)
80. Metallica - Sad But True (Pre-Production Rehearsal)
81. Metallica - Holier Than Thou (Pre-Production Rehearsal)
82. Metallica - Nothing Else Matters (Pre-Production Rehearsal)
83. Metallica - Wherever I May Roam (Pre-Production Rehearsal)
84. Metallica - Don't Tread on Me (Pre-Production Rehearsal)
85. Metallica - Through the Never (Pre-Production Rehearsal)
86. Metallica - The Unforgiven (Pre-Production Rehearsal)
87. Metallica - Of Wolf and Man (Pre-Production Rehearsal)
88. Metallica - The God That Failed (Pre-Production Rehearsal)
89. Metallica - My Friend of Misery (Pre-Production Rehearsal)
90. Metallica - The Struggle Within (Pre-Production Rehearsal)
91. Metallica - Enter Sandman (Radio Edit)
92. Metallica - The Unforgiven (Radio Edit)
93. Metallica - Nothing Else Matters (Radio Edit)
94. Metallica - Wherever I May Roam (Radio Edit)
95. Metallica - So What (Early Take - October 12th, 1990)
96. Metallica - Killing Time (Take 18 - October 12th, 1990)
97. Metallica - Through the Never (Take 53 - October 22nd, 1990)
98. Metallica - Holier Than Thou (Take 9 - October 27th, 1990)
99. Metallica - My Friend of Misery (Take 4 - October 27th, 1990)
100. Metallica - The Struggle Within (Take 12 - November 10th, 1990)
101. Metallica - Of Wolf and Man (Take 2 - December 6th, 1990)
102. Metallica - The God That Failed (Take 26 - December 6th, 1990)
103. Metallica - Don't Tread on Me (Take 6 - December 15th, 1990)
104. Metallica - Enter Sandman (Take 15 - January 21st, 1991)
105. Metallica - Enter Sandman (Take 35 - January 21st, 1991)
106. Metallica - Late Night Skynard Jam (January 23rd, 1991)
107. Metallica - The Unforgiven (139 BPM Take - January 29th, 1991)
108. Metallica - Nothing Else Matters (Take 19 - January 29th, 1991)
109. Metallica - Sad But True (Take 36 - February 5th, 1991)
110. Metallica - Wherever I May Roam (Take 3 - February 5th, 1991)
111. Metallica - Enter Sandman (May 13th, 1991 Rough Mix)
112. Metallica - The God That Failed (May 13th, 1991 Rough Mix)
113. Metallica - The Struggle Within (May 13th, 1991 Rough Mix)
114. Metallica - The Unforgiven (May 14th, 1991 Rough Mix)
115. Metallica - Wherever I May Roam (May 14th, 1991 Rough Mix)
116. Metallica - Don't Tread on Me (May 14th, 1991 Rough Mix)
117. Metallica - Through the Never (May 14th, 1991 Rough Mix)
118. Metallica - Sad But True (May 23rd, 1991 Rough Mix)
119. Metallica - Of Wolf and Man (June 2nd, 1991 Rough Mix)
120. Metallica - My Friend of Misery (June 2nd, 1991 Rough Mix)
121. Metallica - Holier Than Thou (June 2nd, 1991 Rough Mix)
122. Metallica - Nothing Else Matters (No Orchestra Mix - July 8th 1991)
123. Metallica - Nothing Else Matters (Orchestra / Clean Guitar / Vocal Mix - July 8th, 1991)
124. Metallica - Nothing Else Matters (Elevator Version)
125. Metallica - Creeping Death (Live at Day on the Green, Oakland, CA / October 12th, 1991)
126. Metallica - Harvester of Sorrow (Live at Day on the Green, Oakland, CA / October 12th, 1991)
127. Metallica - Welcome Home (Sanitarium) (Live at Day on the Green, Oakland, CA / October 12th, 1991)
128. Metallica - Sad But True (Live at Day on the Green, Oakland, CA / October 12th, 1991)
129. Metallica - Wherever I May Roam (Live at Day on the Green, Oakland, CA / October 12th, 1991)
130. Metallica - Bass Solo (Live at Day on the Green, Oakland, CA / October 12th, 1991)
131. Metallica - Through the Never (Live at Day on the Green, Oakland, CA / October 12th, 1991)
132. Metallica - The Unforgiven (Live at Day on the Green, Oakland, CA / October 12th, 1991)
133. Metallica - Master of Puppets (Live at Day on the Green, Oakland, CA / October 12th, 1991)
134. Metallica - Seek & Destroy (Live at Day on the Green, Oakland, CA / October 12th, 1991)
135. Metallica - For Whom the Bell Tolls (Live at Day on the Green, Oakland, CA / October 12th, 1991)
136. Metallica - Fade to Black (Live at Day on the Green, Oakland, CA / October 12th, 1991)
137. Metallica - Whiplash (Live at Day on the Green, Oakland, CA / October 12th, 1991)
138. Metallica - The Ecstasy of Gold (Live at Arco Arena, Sacramento, CA / January 11th, 1992)
139. Metallica - Enter Sandman (Live at Arco Arena, Sacramento, CA / January 11th, 1992)
140. Metallica - Creeping Death (Live at Arco Arena, Sacramento, CA / January 11th, 1992)
141. Metallica - Harvester of Sorrow (Live at Arco Arena, Sacramento, CA / January 11th, 1992)
142. Metallica - Welcome Home (Sanitarium) (Live at Arco Arena, Sacramento, CA / January 11th, 1992)
143. Metallica - Sad But True (Live at Arco Arena, Sacramento, CA / January 11th, 1992)
144. Metallica - Wherever I May Roam (Live at Arco Arena, Sacramento, CA / January 11th, 1992)
145. Metallica - The Four Horsemen (Live at Arco Arena, Sacramento, CA / January 11th, 1992)
146. Metallica - Bass Solo (Live at Arco Arena, Sacramento, CA / January 11th, 1992)
147. Metallica - Through the Never (Live at Arco Arena, Sacramento, CA / January 11th, 1992)
148. Metallica - The Unforgiven (Live at Arco Arena, Sacramento, CA / January 11th, 1992)
149. Metallica - Justice Medley (Live at Arco Arena, Sacramento, CA / January 11th, 1992)
150. Metallica - Drum Solo (Live at Arco Arena, Sacramento, CA / January 11th, 1992)
151. Metallica - Guitar Solo (Live at Arco Arena, Sacramento, CA / January 11th, 1992)
152. Metallica - For Whom the Bell Tolls (Live at Arco Arena, Sacramento, CA / January 11th, 1992)
153. Metallica - Fade to Black (Live at Arco Arena, Sacramento, CA / January 11th, 1992)
154. Metallica - Whiplash (Live at Arco Arena, Sacramento, CA / January 11th, 1992)
155. Metallica - Encore Jam (Live at Arco Arena, Sacramento, CA / January 11th, 1992)
156. Metallica - Master of Puppets (Live at Arco Arena, Sacramento, CA / January 11th, 1992)
157. Metallica - Seek & Destroy (Live at Arco Arena, Sacramento, CA / January 11th, 1992)
158. Metallica - One (Live at Arco Arena, Sacramento, CA / January 11th, 1992)
159. Metallica - Last Caress (Live at Arco Arena, Sacramento, CA / January 11th, 1992)
160. Metallica - Am I Evil? (Live at Arco Arena, Sacramento, CA / January 11th, 1992)
161. Metallica - Battery (Live at Arco Arena, Sacramento, CA / January 11th, 1992)
162. Metallica - Encore Jam #2 (Live at Arco Arena, Sacramento, CA / January 11th, 1992)
163. Metallica - Breadfan (Live at Arco Arena, Sacramento, CA / January 11th, 1992)
164. Metallica - Stone Cold Crazy (Remastered 2021)
165. Metallica - So What (Remastered 2021)
166. Metallica - Killing Time (Remastered 2021)
167. James Hetfield - Stone Cold Crazy (Live at Wembley Stadium, London, England - April 20th, 1992)
168. Metallica - Harvester of Sorrow (Live at The Liebenau, Graz, Austria / September 11th, 1991)
169. Metallica - Nothing Else Matters (Live at Aggie Memorial Stadium, Las Cruces, NM - August 27th, 1992)
170. Metallica - The Ecstasy of Gold (Live at Maimarktgelände, Mannheim, Germany / May 22nd, 1993)
171. Metallica - Creeping Death (Live at Maimarktgelände, Mannheim, Germany / May 22nd, 1993)
172. Metallica - Harvester of Sorrow (Live at Maimarktgelände, Mannheim, Germany / May 22nd, 1993)
173. Metallica - Welcome Home (Sanitarium) (Live at Maimarktgelände, Mannheim, Germany / May 22nd, 1993)
174. Metallica - Of Wolf and Man (Live at Maimarktgelände, Mannheim, Germany / May 22nd, 1993)
175. Metallica - Wherever I May Roam (Live at Maimarktgelände, Mannheim, Germany / May 22nd, 1993)
176. Metallica - The Thing That Should Not Be (Live at Maimarktgelände, Mannheim, Germany / May 22nd, 1993)
177. Metallica - The Unforgiven (Live at Maimarktgelände, Mannheim, Germany / May 22nd, 1993)
178. Metallica - Disposable Heroes (Live at Maimarktgelände, Mannheim, Germany / May 22nd, 1993)
179. Metallica - Bass Solo (Live at Maimarktgelände, Mannheim, Germany / May 22nd, 1993)
180. Metallica - Instrumental Medley (Live at Maimarktgelände, Mannheim, Germany / May 22nd, 1993)
181. Metallica - Guitar Solo (Live at Maimarktgelände, Mannheim, Germany / May 22nd, 1993)
182. Metallica - The Four Horsemen (Live at Maimarktgelände, Mannheim, Germany / May 22nd, 1993)
183. Metallica - For Whom the Bell Tolls (Live at Maimarktgelände, Mannheim, Germany / May 22nd, 1993)
184. Metallica - Fade to Black (Live at Maimarktgelände, Mannheim, Germany / May 22nd, 1993)
185. Metallica - Master of Puppets (Live at Maimarktgelände, Mannheim, Germany / May 22nd, 1993)
186. Metallica - Seek & Destroy (Live at Maimarktgelände, Mannheim, Germany / May 22nd, 1993)
187. Metallica - Battery (Live at Maimarktgelände, Mannheim, Germany / May 22nd, 1993)
188. Metallica - Nothing Else Matters (Live at Maimarktgelände, Mannheim, Germany / May 22nd, 1993)
189. Metallica - Sad But True (Live at Maimarktgelände, Mannheim, Germany / May 22nd, 1993)
190. Metallica - Last Caress (Live at Maimarktgelände, Mannheim, Germany / May 22nd, 1993)
191. Metallica - One (Live at Maimarktgelände, Mannheim, Germany / May 22nd, 1993)
192. Metallica - Enter Sandman (Live at Maimarktgelände, Mannheim, Germany / May 22nd, 1993)
193. Metallica - So What (Live at Maimarktgelände, Mannheim, Germany / May 22nd, 1993)

foobar2000 1.6.2 / Dynamic Range Meter 1.1.1
log date: 2021-09-09 15:01:27

––––––––––––––––––––––––––––––––––––––––
Analyzed: James Hetfield / Metallica (Remastered Deluxe Box Set - Explicit) (1)
Metallica / Metallica (Remastered Deluxe Box Set - Explicit) (2-193)
––––––––––––––––––––––––––––––––––––––––

DR Peak RMS Duration Track
––––––––––––––––––––––––––––––––––––––––
DR10 -0.24 dB -12.64 dB 3:03 167-Stone Cold Crazy (Live at Wembley Stadium, London, England - April 20th, 1992)
DR10 -0.20 dB -11.41 dB 5:32 01-Enter Sandman (Remastered 2021)
DR10 -0.20 dB -11.35 dB 5:25 02-Sad But True (Remastered 2021)
DR10 -0.20 dB -10.92 dB 3:48 03-Holier Than Thou (Remastered 2021)
DR10 -0.21 dB -12.41 dB 6:27 04-The Unforgiven (Remastered 2021)
DR10 -0.20 dB -11.43 dB 6:44 05-Wherever I May Roam (Remastered 2021)
DR10 -0.20 dB -10.83 dB 4:00 06-Don't Tread on Me (Remastered 2021)
DR9 -0.20 dB -10.13 dB 4:05 07-Through the Never (Remastered 2021)
DR10 -0.20 dB -13.42 dB 6:29 08-Nothing Else Matters (Remastered 2021)
DR10 -0.20 dB -11.20 dB 4:17 09-Of Wolf and Man (Remastered 2021)
DR10 -0.20 dB -10.66 dB 5:09 10-The God That Failed (Remastered 2021)
DR10 -0.20 dB -11.58 dB 6:50 11-My Friend of Misery (Remastered 2021)
DR10 -0.20 dB -11.12 dB 3:53 12-The Struggle Within (Remastered 2021)
DR8 -0.20 dB -9.84 dB 6:59 13-Enter Sandman (Live at Wembley Stadium, London, England / April 20th, 1992)
DR8 -0.20 dB -9.09 dB 5:34 14-Sad But True (Live at Wembley Stadium, London, England / April 20th, 1992)
DR8 -0.20 dB -10.23 dB 6:24 15-Nothing Else Matters (Live at Wembley Stadium, London, England / April 20th, 1992)
DR9 -1.51 dB -14.42 dB 1:54 16-The Ecstasy of Gold (Live at Tushino Airfield, Moscow, Russia / September 28th, 1991)
DR8 -0.20 dB -8.90 dB 5:21 17-Enter Sandman (Live at Tushino Airfield, Moscow, Russia / September 28th, 1991)
DR8 -0.20 dB -8.49 dB 7:57 18-Creeping Death (Live at Tushino Airfield, Moscow, Russia / September 28th, 1991)
DR8 -0.20 dB -9.35 dB 7:04 19-Harvester of Sorrow (Live at Tushino Airfield, Moscow, Russia / September 28th, 1991)
DR8 -0.20 dB -9.67 dB 7:45 20-Fade to Black (Live at Tushino Airfield, Moscow, Russia / September 28th, 1991)
DR8 -0.20 dB -9.59 dB 6:01 21-Sad But True (Live at Tushino Airfield, Moscow, Russia / September 28th, 1991)
DR8 -0.20 dB -9.24 dB 4:14 22-Master of Puppets (Live at Tushino Airfield, Moscow, Russia / September 28th, 1991)
DR8 -0.20 dB -9.23 dB 7:58 23-Seek & Destroy (Live at Tushino Airfield, Moscow, Russia / September 28th, 1991)
DR8 -0.20 dB -9.15 dB 5:48 24-For Whom the Bell Tolls (Live at Tushino Airfield, Moscow, Russia / September 28th, 1991)
DR8 -0.20 dB -10.34 dB 8:15 25-One (Live at Tushino Airfield, Moscow, Russia / September 28th, 1991)
DR7 -0.20 dB -9.14 dB 5:42 26-Whiplash (Live at Tushino Airfield, Moscow, Russia / September 28th, 1991)
DR8 -0.20 dB -10.78 dB 1:30 27-Encore Jam (Live at Tushino Airfield, Moscow, Russia / September 28th, 1991)
DR8 -0.20 dB -8.78 dB 1:28 28-Last Caress (Live at Tushino Airfield, Moscow, Russia / September 28th, 1991)
DR8 -0.20 dB -9.27 dB 4:44 29-Am I Evil? (Live at Tushino Airfield, Moscow, Russia / September 28th, 1991)
DR7 -0.20 dB -9.74 dB 7:14 30-Battery (Live at Tushino Airfield, Moscow, Russia / September 28th, 1991)
DR7 -4.25 dB -14.07 dB 1:08 31-The Unforgiven (From James' Riff Tapes)
DR8 -5.39 dB -15.37 dB 4:55 32-Nothing Else Matters (From James' Riff Tapes)
DR9 -0.98 dB -11.85 dB 0:56 33-Sad But True (From James' Riff Tapes)
DR8 -1.07 dB -10.89 dB 1:48 34-Holier Than Thou (From James' Riff Tapes)
DR9 -0.30 dB -10.85 dB 1:13 35-Don't Tread on Me (From James' Riff Tapes)
DR10 -0.30 dB -11.49 dB 0:22 36-The Unforgiven (From James' Riff Tapes II)
DR9 -0.31 dB -10.42 dB 1:32 37-The Struggle Within (From James' Riff Tapes)
DR11 -0.29 dB -14.39 dB 2:10 38-The Unforgiven (From James' Riff Tapes III)
DR8 -5.52 dB -17.25 dB 0:43 39-The God That Failed (From James' Riff Tapes)
DR5 -7.24 dB -14.75 dB 0:25 40-Wherever I May Roam (From James' Riff Tapes)
DR11 -1.85 dB -18.90 dB 1:12 41-Enter Sandman (From Kirk's Riff Tapes)
DR10 -7.87 dB -19.21 dB 1:27 42-Through the Never (From Kirk's Riff Tapes)
DR10 -7.91 dB -19.65 dB 0:30 43-Of Wolf and Man (From Kirk's Riff Tapes)
DR10 -3.46 dB -16.74 dB 0:40 44-Enter Sandman (From Kirk's Riff Tapes II)
DR10 -4.44 dB -16.26 dB 4:38 45-My Friend of Misery (From Jason's Riff Tapes)
DR13 -0.24 dB -16.11 dB 1:34 46-Enter Sandman (July 6th, 1990, Writing in Progress)
DR12 -0.33 dB -14.30 dB 2:00 47-Sad But True (July 6th, 1990, Writing in Progress)
DR12 -0.22 dB -14.45 dB 1:16 48-The God That Failed (July 6th, 1990, Writing in Progress)
DR12 -0.23 dB -14.37 dB 1:05 49-Don't Tread on Me (July 6th, 1990, Writing in Progress)
DR12 -0.21 dB -14.54 dB 0:42 50-The Struggle Within (July 6th, 1990, Writing in Progress)
DR12 -0.30 dB -14.43 dB 1:40 51-Holier Than Thou (July 6th, 1990, Writing in Progress)
DR11 -0.20 dB -13.72 dB 0:53 52-Sad But True (July 10th, 1990, Writing in Progress)
DR10 -0.20 dB -12.06 dB 5:12 53-Sad But True (July 12th, 1990, Demo)
DR10 -0.85 dB -13.27 dB 4:09 54-Don't Tread on Me (July 12th, 1990, Demo)
DR10 -1.05 dB -14.25 dB 4:50 55-Enter Sandman (July 12th, 1990, Demo)
DR10 -4.35 dB -19.41 dB 6:04 56-Nothing Else Matters (July 12th, 1990, Demo)
DR11 -1.99 dB -15.21 dB 2:21 57-Of Wolf and Man (July 12th, 1990, Writing in Progress)
DR11 -0.83 dB -13.80 dB 3:00 58-Through the Never (July 12th, 1990, Writing in Progress)
DR12 -0.25 dB -14.18 dB 1:25 59-The Struggle Within (July 24th, 1990, Writing in Progress)
DR12 -0.20 dB -14.13 dB 2:17 60-Wherever I May Roam (July 24th, 1990, Writing in Progress)
DR11 -0.20 dB -12.02 dB 6:06 61-Wherever I May Roam (July 30th, 1990, Writing in Progress)
DR12 -0.20 dB -13.47 dB 3:47 62-The Struggle Within (July 30th, 1990, Writing in Progress)
DR8 -2.01 dB -12.77 dB 5:04 63-Enter Sandman (August 13th, 1990, Demo)
DR9 -1.80 dB -12.92 dB 4:54 64-Sad But True (August 13th, 1990, Demo)
DR10 -2.20 dB -13.15 dB 3:59 65-Don't Tread on Me (August 13th, 1990, Demo)
DR10 -2.72 dB -15.98 dB 5:54 66-Nothing Else Matters (August 13th, 1990, Demo)
DR9 -1.74 dB -13.02 dB 3:48 67-Holier Than Thou (August 13th, 1990, Demo)
DR9 -2.74 dB -14.01 dB 5:36 68-Wherever I May Roam (August 13th, 1990, Demo)
DR9 -2.18 dB -14.50 dB 3:45 69-The Struggle Within (August 13th, 1990, Demo)
DR9 -3.59 dB -14.75 dB 1:20 70-The God That Failed (August 22nd, 1990, Writing in Progress)
DR14 -0.66 dB -15.61 dB 1:01 71-Of Wolf and Man (August 22nd, 1990, Writing in Progress)
DR9 -4.10 dB -14.55 dB 4:05 72-My Friend of Misery (August 29th, 1990, Writing in Progress)
DR11 -2.71 dB -17.64 dB 3:44 73-The Unforgiven (August 29th, 1990, Writing in Progress)
DR11 -1.58 dB -14.07 dB 3:39 74-Through the Never (August 31st, 1990, Demo)
DR12 -0.49 dB -14.79 dB 4:05 75-Of Wolf and Man (August 31st, 1990, Demo)
DR11 -1.41 dB -14.40 dB 4:45 76-The God That Failed (August 31st, 1990, Demo)
DR13 -2.44 dB -18.16 dB 5:45 77-The Unforgiven (September 3rd, 1990, Writing in Progress)
DR10 -3.50 dB -15.13 dB 1:47 78-My Friend of Misery (September 3rd, 1990, Writing in Progress)
DR8 -0.21 dB -9.60 dB 4:59 79-Enter Sandman (Pre-Production Rehearsal)
DR8 -0.21 dB -9.34 dB 5:18 80-Sad But True (Pre-Production Rehearsal)
DR8 -0.21 dB -9.18 dB 3:47 81-Holier Than Thou (Pre-Production Rehearsal)
DR11 -0.20 dB -14.15 dB 6:11 82-Nothing Else Matters (Pre-Production Rehearsal)
DR9 -0.22 dB -10.06 dB 6:08 83-Wherever I May Roam (Pre-Production Rehearsal)
DR9 -0.23 dB -9.95 dB 4:08 84-Don't Tread on Me (Pre-Production Rehearsal)
DR9 -0.24 dB -9.78 dB 3:50 85-Through the Never (Pre-Production Rehearsal)
DR11 -0.21 dB -13.03 dB 6:43 86-The Unforgiven (Pre-Production Rehearsal)
DR10 -0.23 dB -11.08 dB 4:16 87-Of Wolf and Man (Pre-Production Rehearsal)
DR9 -0.23 dB -10.23 dB 5:11 88-The God That Failed (Pre-Production Rehearsal)
DR10 -0.22 dB -11.06 dB 6:24 89-My Friend of Misery (Pre-Production Rehearsal)
DR8 -0.20 dB -9.64 dB 3:59 90-The Struggle Within (Pre-Production Rehearsal)
DR11 -0.20 dB -12.71 dB 4:02 91-Enter Sandman (Radio Edit)
DR11 -0.20 dB -12.84 dB 5:01 92-The Unforgiven (Radio Edit)
DR11 -0.20 dB -13.77 dB 5:01 93-Nothing Else Matters (Radio Edit)
DR10 -0.20 dB -11.75 dB 5:00 94-Wherever I May Roam (Radio Edit)
DR10 -0.20 dB -10.67 dB 3:02 95-So What (Early Take - October 12th, 1990)
DR10 -0.20 dB -11.56 dB 3:09 96-Killing Time (Take 18 - October 12th, 1990)
DR11 -0.20 dB -12.89 dB 4:14 97-Through the Never (Take 53 - October 22nd, 1990)
DR12 -0.20 dB -13.43 dB 4:01 98-Holier Than Thou (Take 9 - October 27th, 1990)
DR12 -0.20 dB -14.13 dB 6:38 99-My Friend of Misery (Take 4 - October 27th, 1990)
DR11 -0.21 dB -12.53 dB 3:26 100-The Struggle Within (Take 12 - November 10th, 1990)
DR13 -0.20 dB -14.62 dB 4:30 101-Of Wolf and Man (Take 2 - December 6th, 1990)
DR14 -0.20 dB -16.09 dB 5:04 102-The God That Failed (Take 26 - December 6th, 1990)
DR12 -0.20 dB -13.04 dB 4:03 103-Don't Tread on Me (Take 6 - December 15th, 1990)
DR12 -0.20 dB -13.70 dB 3:37 104-Enter Sandman (Take 15 - January 21st, 1991)
DR12 -0.23 dB -13.75 dB 1:30 105-Enter Sandman (Take 35 - January 21st, 1991)
DR13 -0.20 dB -15.61 dB 4:09 106-Late Night Skynard Jam (January 23rd, 1991)
DR14 -0.20 dB -16.75 dB 5:19 107-The Unforgiven (139 BPM Take - January 29th, 1991)
DR14 -0.20 dB -16.36 dB 4:56 108-Nothing Else Matters (Take 19 - January 29th, 1991)
DR12 -0.20 dB -12.96 dB 5:18 109-Sad But True (Take 36 - February 5th, 1991)
DR12 -0.20 dB -14.06 dB 4:59 110-Wherever I May Roam (Take 3 - February 5th, 1991)
DR8 -0.20 dB -10.26 dB 5:35 111-Enter Sandman (May 13th, 1991 Rough Mix)
DR9 -0.20 dB -10.25 dB 5:02 112-The God That Failed (May 13th, 1991 Rough Mix)
DR10 -0.20 dB -11.92 dB 3:55 113-The Struggle Within (May 13th, 1991 Rough Mix)
DR10 -0.20 dB -12.19 dB 6:21 114-The Unforgiven (May 14th, 1991 Rough Mix)
DR9 -0.20 dB -10.76 dB 6:22 115-Wherever I May Roam (May 14th, 1991 Rough Mix)
DR9 -0.20 dB -10.39 dB 4:08 116-Don't Tread on Me (May 14th, 1991 Rough Mix)
DR10 -0.20 dB -11.16 dB 4:03 117-Through the Never (May 14th, 1991 Rough Mix)
DR9 -0.20 dB -10.75 dB 5:24 118-Sad But True (May 23rd, 1991 Rough Mix)
DR10 -0.20 dB -11.36 dB 4:19 119-Of Wolf and Man (June 2nd, 1991 Rough Mix)
DR9 -0.20 dB -11.17 dB 6:43 120-My Friend of Misery (June 2nd, 1991 Rough Mix)
DR8 -0.20 dB -9.57 dB 3:48 121-Holier Than Thou (June 2nd, 1991 Rough Mix)
DR11 -0.20 dB -13.82 dB 6:41 122-Nothing Else Matters (No Orchestra Mix - July 8th 1991)
DR14 -0.30 dB -18.29 dB 6:46 123-Nothing Else Matters (Orchestra / Clean Guitar / Vocal Mix - July 8th, 1991)
DR12 -0.21 dB -15.22 dB 6:31 124-Nothing Else Matters (Elevator Version)
DR10 -0.21 dB -12.30 dB 3:33 125-Creeping Death (Live at Day on the Green, Oakland, CA / October 12th, 1991)
DR10 -0.20 dB -12.62 dB 7:02 126-Harvester of Sorrow (Live at Day on the Green, Oakland, CA / October 12th, 1991)
DR10 -0.20 dB -12.30 dB 7:10 127-Welcome Home (Sanitarium) (Live at Day on the Green, Oakland, CA / October 12th, 1991)
DR10 -0.20 dB -11.77 dB 5:39 128-Sad But True (Live at Day on the Green, Oakland, CA / October 12th, 1991)
DR10 -0.20 dB -12.02 dB 6:58 129-Wherever I May Roam (Live at Day on the Green, Oakland, CA / October 12th, 1991)
DR14 -0.23 dB -17.93 dB 4:27 130-Bass Solo (Live at Day on the Green, Oakland, CA / October 12th, 1991)
DR10 -0.20 dB -11.98 dB 4:40 131-Through the Never (Live at Day on the Green, Oakland, CA / October 12th, 1991)
DR11 -0.20 dB -13.45 dB 7:47 132-The Unforgiven (Live at Day on the Green, Oakland, CA / October 12th, 1991)
DR11 -0.20 dB -12.16 dB 4:04 133-Master of Puppets (Live at Day on the Green, Oakland, CA / October 12th, 1991)
DR11 -0.20 dB -12.11 dB 7:33 134-Seek & Destroy (Live at Day on the Green, Oakland, CA / October 12th, 1991)
DR11 -0.20 dB -12.45 dB 5:59 135-For Whom the Bell Tolls (Live at Day on the Green, Oakland, CA / October 12th, 1991)
DR10 -0.20 dB -12.94 dB 7:34 136-Fade to Black (Live at Day on the Green, Oakland, CA / October 12th, 1991)
DR11 -0.20 dB -12.40 dB 4:52 137-Whiplash (Live at Day on the Green, Oakland, CA / October 12th, 1991)
DR10 -3.79 dB -19.19 dB 1:45 138-The Ecstasy of Gold (Live at Arco Arena, Sacramento, CA / January 11th, 1992)
DR11 -0.20 dB -12.97 dB 5:28 139-Enter Sandman (Live at Arco Arena, Sacramento, CA / January 11th, 1992)
DR11 -0.20 dB -13.13 dB 8:04 140-Creeping Death (Live at Arco Arena, Sacramento, CA / January 11th, 1992)
DR10 -0.20 dB -13.06 dB 6:25 141-Harvester of Sorrow (Live at Arco Arena, Sacramento, CA / January 11th, 1992)
DR11 -0.20 dB -13.87 dB 7:45 142-Welcome Home (Sanitarium) (Live at Arco Arena, Sacramento, CA / January 11th, 1992)
DR10 -0.20 dB -12.43 dB 5:24 143-Sad But True (Live at Arco Arena, Sacramento, CA / January 11th, 1992)
DR11 -0.20 dB -12.40 dB 6:27 144-Wherever I May Roam (Live at Arco Arena, Sacramento, CA / January 11th, 1992)
DR11 -0.20 dB -13.70 dB 7:28 145-The Four Horsemen (Live at Arco Arena, Sacramento, CA / January 11th, 1992)
DR10 -4.30 dB -18.06 dB 8:17 146-Bass Solo (Live at Arco Arena, Sacramento, CA / January 11th, 1992)
DR10 -0.20 dB -12.75 dB 4:23 147-Through the Never (Live at Arco Arena, Sacramento, CA / January 11th, 1992)
DR10 -0.20 dB -13.09 dB 7:31 148-The Unforgiven (Live at Arco Arena, Sacramento, CA / January 11th, 1992)
DR10 -0.20 dB -12.25 dB 9:30 149-Justice Medley (Live at Arco Arena, Sacramento, CA / January 11th, 1992)
DR13 -0.20 dB -16.10 dB 12:47 150-Drum Solo (Live at Arco Arena, Sacramento, CA / January 11th, 1992)
DR13 -0.21 dB -16.77 dB 5:51 151-Guitar Solo (Live at Arco Arena, Sacramento, CA / January 11th, 1992)
DR10 -0.20 dB -12.02 dB 5:28 152-For Whom the Bell Tolls (Live at Arco Arena, Sacramento, CA / January 11th, 1992)
DR11 -0.20 dB -13.35 dB 7:54 153-Fade to Black (Live at Arco Arena, Sacramento, CA / January 11th, 1992)
DR10 -0.20 dB -12.27 dB 4:51 154-Whiplash (Live at Arco Arena, Sacramento, CA / January 11th, 1992)
DR14 -0.20 dB -16.61 dB 1:09 155-Encore Jam (Live at Arco Arena, Sacramento, CA / January 11th, 1992)
DR11 -0.20 dB -13.05 dB 4:05 156-Master of Puppets (Live at Arco Arena, Sacramento, CA / January 11th, 1992)
DR11 -0.20 dB -13.78 dB 12:48 157-Seek & Destroy (Live at Arco Arena, Sacramento, CA / January 11th, 1992)
DR11 -0.20 dB -13.55 dB 9:30 158-One (Live at Arco Arena, Sacramento, CA / January 11th, 1992)
DR11 -0.20 dB -13.17 dB 1:30 159-Last Caress (Live at Arco Arena, Sacramento, CA / January 11th, 1992)
DR11 -0.20 dB -13.39 dB 4:52 160-Am I Evil? (Live at Arco Arena, Sacramento, CA / January 11th, 1992)
DR11 -0.20 dB -12.65 dB 5:16 161-Battery (Live at Arco Arena, Sacramento, CA / January 11th, 1992)
DR14 -0.22 dB -19.86 dB 1:45 162-Encore Jam #2 (Live at Arco Arena, Sacramento, CA / January 11th, 1992)
DR10 -0.20 dB -12.53 dB 4:11 163-Breadfan (Live at Arco Arena, Sacramento, CA / January 11th, 1992)
DR12 -0.21 dB -13.25 dB 2:19 164-Stone Cold Crazy (Remastered 2021)
DR10 -0.20 dB -11.87 dB 3:09 165-So What (Remastered 2021)
DR11 -0.20 dB -12.72 dB 3:05 166-Killing Time (Remastered 2021)
DR11 -0.20 dB -12.67 dB 6:01 168-Harvester of Sorrow (Live at The Liebenau, Graz, Austria / September 11th, 1991)
DR13 -0.29 dB -15.94 dB 6:11 169-Nothing Else Matters (Live at Aggie Memorial Stadium, Las Cruces, NM - August 27th, 1992)
DR9 -4.80 dB -19.39 dB 1:41 170-The Ecstasy of Gold (Live at Maimarktgelände, Mannheim, Germany / May 22nd, 1993)
DR11 -0.20 dB -12.84 dB 7:07 171-Creeping Death (Live at Maimarktgelände, Mannheim, Germany / May 22nd, 1993)
DR12 -0.20 dB -13.76 dB 7:02 172-Harvester of Sorrow (Live at Maimarktgelände, Mannheim, Germany / May 22nd, 1993)
DR11 -0.20 dB -13.40 dB 6:51 173-Welcome Home (Sanitarium) (Live at Maimarktgelände, Mannheim, Germany / May 22nd, 1993)
DR11 -0.20 dB -13.12 dB 4:17 174-Of Wolf and Man (Live at Maimarktgelände, Mannheim, Germany / May 22nd, 1993)
DR11 -0.20 dB -12.69 dB 6:53 175-Wherever I May Roam (Live at Maimarktgelände, Mannheim, Germany / May 22nd, 1993)
DR9 -0.20 dB -12.33 dB 8:25 176-The Thing That Should Not Be (Live at Maimarktgelände, Mannheim, Germany / May 22nd, 1993)
DR10 -0.20 dB -13.03 dB 7:04 177-The Unforgiven (Live at Maimarktgelände, Mannheim, Germany / May 22nd, 1993)
DR10 -0.20 dB -12.05 dB 8:58 178-Disposable Heroes (Live at Maimarktgelände, Mannheim, Germany / May 22nd, 1993)
DR11 -1.48 dB -18.06 dB 7:44 179-Bass Solo (Live at Maimarktgelände, Mannheim, Germany / May 22nd, 1993)
DR11 -0.20 dB -13.70 dB 6:48 180-Instrumental Medley (Live at Maimarktgelände, Mannheim, Germany / May 22nd, 1993)
DR11 -0.38 dB -16.38 dB 1:17 181-Guitar Solo (Live at Maimarktgelände, Mannheim, Germany / May 22nd, 1993)
DR11 -0.20 dB -11.96 dB 5:03 182-The Four Horsemen (Live at Maimarktgelände, Mannheim, Germany / May 22nd, 1993)
DR10 -0.20 dB -12.20 dB 5:58 183-For Whom the Bell Tolls (Live at Maimarktgelände, Mannheim, Germany / May 22nd, 1993)
DR11 -0.20 dB -12.63 dB 7:08 184-Fade to Black (Live at Maimarktgelände, Mannheim, Germany / May 22nd, 1993)
DR10 -0.20 dB -12.43 dB 4:23 185-Master of Puppets (Live at Maimarktgelände, Mannheim, Germany / May 22nd, 1993)
DR10 -0.20 dB -12.73 dB 17:35 186-Seek & Destroy (Live at Maimarktgelände, Mannheim, Germany / May 22nd, 1993)
DR10 -0.20 dB -12.04 dB 5:42 187-Battery (Live at Maimarktgelände, Mannheim, Germany / May 22nd, 1993)
DR12 -0.20 dB -15.57 dB 6:30 188-Nothing Else Matters (Live at Maimarktgelände, Mannheim, Germany / May 22nd, 1993)
DR9 -0.20 dB -11.37 dB 6:03 189-Sad But True (Live at Maimarktgelände, Mannheim, Germany / May 22nd, 1993)
DR10 -0.20 dB -12.05 dB 1:25 190-Last Caress (Live at Maimarktgelände, Mannheim, Germany / May 22nd, 1993)
DR10 -0.20 dB -12.90 dB 10:15 191-One (Live at Maimarktgelände, Mannheim, Germany / May 22nd, 1993)
DR9 -0.20 dB -11.05 dB 6:14 192-Enter Sandman (Live at Maimarktgelände, Mannheim, Germany / May 22nd, 1993)
DR9 -0.20 dB -11.62 dB 3:31 193-So What (Live at Maimarktgelände, Mannheim, Germany / May 22nd, 1993)
––––––––––––––––––––––––––––––––––––––––

Number of tracks: 193
Official DR value: DR10

Samplerate: 44100 Hz
Channels: 2
Bits per sample: 24
Bitrate: 1580 kbps
Codec: FLAC
================================================================================



Thanks to the Original customer.