Michael Tilson Thomas - Tilson Thomas: From the Diary of Anne Frank & Meditations on Rilke (2020) [Official Digital Download]

Posted By: pyatak
Michael Tilson Thomas - Tilson Thomas: From the Diary of Anne Frank & Meditations on Rilke (2020) [Official Digital Download]

San Francisco Symphony & Michael Tilson Thomas - Tilson Thomas: From the Diary of Anne Frank & Meditations on Rilke (2020) [Official Digital Download] 24/96]
FLAC (tracks) 24-bit/96 kHz | Front Cover | Time - 01:20:50 minutes | 1,43 GB
Classical, Vocal | Label: SFS Media, Official Digital Download

In celebration of Michael Tilson Thomas’ 25th and final year as Music Director of the San Francisco Symphony, SFS Media presents the premiere recordings of MTT’s most recent compositions for voice and orchestra. MTT’s From the Diary of Anne Frank and Meditations on Rilke feature narrator Isabel Leonard, mezzo-soprano Sasha Cooke, and bass-baritone Ryan McKinny. Inspired by and based on the words and compassionate spirit of Anne Frank, From the Diary of Anne Frank opens with a flourish and culminates in a solemn yet hopeful vision for the future. Meditations on Rilke takes listeners on an emotional and evocative journey befitting the lyrical sweep of Rainer Maria Rilke’s poems.

TRACKLIST

1. San Francisco Symphony - From the Diary of Anne Frank, Pt. 1: Instrumental Intro
2. San Francisco Symphony - From the Diary of Anne Frank, Pt. 1: "I hope I shall be able to confide…"
3. San Francisco Symphony - From the Diary of Anne Frank, Pt. 1: "It's an odd idea…"
4. San Francisco Symphony - From the Diary of Anne Frank, Pt. 1: "There is a saying…"
5. San Francisco Symphony - From the Diary of Anne Frank, Pt. 2: "Dear Kitty. So much has happened…"
6. San Francisco Symphony - From the Diary of Anne Frank, Pt. 2: "Daddy began to tell us…"
7. San Francisco Symphony - From the Diary of Anne Frank, Pt. 2: "I feel wicked sleeping in a warm bed…"
8. San Francisco Symphony - From the Diary of Anne Frank, Pt. 2: Instrumental
9. San Francisco Symphony - From the Diary of Anne Frank, Pt. 3: "Dear Kitty!!!…"
10. San Francisco Symphony - From the Diary of Anne Frank, Pt. 3: "I believe that it's spring…"
11. San Francisco Symphony - From the Diary of Anne Frank, Pt. 3: "Do you gather a bit of what I mean?…"
12. San Francisco Symphony - From the Diary of Anne Frank, Pt. 3: "I want to go on living…"
13. San Francisco Symphony - Meditations on Rilke: Herbsttag
14. San Francisco Symphony - Meditations on Rilke: Ich lebe mein Leben in wachsenden Ringen
15. San Francisco Symphony - Meditations on Rilke: Das Lied des Trinkers
16. San Francisco Symphony - Meditations on Rilke: Immer wieder
17. San Francisco Symphony - Meditations on Rilke: Imaginärer Lebenslauf
18. San Francisco Symphony - Meditations on Rilke: Herbst

foobar2000 1.3.16 / Dynamic Range Meter 1.1.1
log date: 2020-06-29 22:52:01

––––––––––––––––––––––––––––––––––––––––
Analyzed: San Francisco Symphony / Tilson Thomas: From the Diary of Anne Frank & Meditations on Rilke
––––––––––––––––––––––––––––––––––––––––

DR Peak RMS Duration Track
––––––––––––––––––––––––––––––––––––––––
DR13 0.00 dB -19.02 dB 2:04 01-From the Diary of Anne Frank, Pt. 1: Instrumental Intro
DR12 -9.64 dB -29.13 dB 1:53 02-From the Diary of Anne Frank, Pt. 1: "I hope I shall be able to confide…"
DR14 -10.83 dB -28.73 dB 1:49 03-From the Diary of Anne Frank, Pt. 1: "It's an odd idea…"
DR17 -7.34 dB -28.26 dB 4:53 04-From the Diary of Anne Frank, Pt. 1: "There is a saying…"
DR14 0.00 dB -19.18 dB 4:44 05-From the Diary of Anne Frank, Pt. 2: "Dear Kitty. So much has happened…"
DR14 0.00 dB -25.07 dB 4:17 06-From the Diary of Anne Frank, Pt. 2: "Daddy began to tell us…"
DR15 -9.47 dB -30.73 dB 3:42 07-From the Diary of Anne Frank, Pt. 2: "I feel wicked sleeping in a warm bed…"
DR12 0.00 dB -18.65 dB 6:01 08-From the Diary of Anne Frank, Pt. 2: Instrumental
DR15 -4.97 dB -25.47 dB 2:34 09-From the Diary of Anne Frank, Pt. 3: "Dear Kitty!!!…"
DR14 0.00 dB -21.13 dB 3:58 10-From the Diary of Anne Frank, Pt. 3: "I believe that it's spring…"
DR14 -13.94 dB -33.54 dB 1:28 11-From the Diary of Anne Frank, Pt. 3: "Do you gather a bit of what I mean?…"
DR17 -0.97 dB -26.15 dB 4:30 12-From the Diary of Anne Frank, Pt. 3: "I want to go on living…"
DR16 -2.67 dB -26.03 dB 8:44 13-Meditations on Rilke: Herbsttag
DR13 -8.92 dB -27.79 dB 3:16 14-Meditations on Rilke: Ich lebe mein Leben in wachsenden Ringen
DR15 -0.44 dB -22.68 dB 4:50 15-Meditations on Rilke: Das Lied des Trinkers
DR13 -7.28 dB -26.53 dB 7:21 16-Meditations on Rilke: Immer wieder
DR14 -0.06 dB -21.27 dB 5:45 17-Meditations on Rilke: Imaginärer Lebenslauf
DR15 -1.47 dB -24.04 dB 9:10 18-Meditations on Rilke: Herbst
––––––––––––––––––––––––––––––––––––––––

Number of tracks: 18
Official DR value: DR14

Samplerate: 96000 Hz
Channels: 2
Bits per sample: 24
Bitrate: 2507 kbps
Codec: FLAC
================================================================================



Thanks to the Original customer.