Tags
Language
Tags

Mildred Bailey - Sings... Me And The Blues (1957/2021) [Official Digital Download 24/96]

Posted By: pyatak
Mildred Bailey - Sings... Me And The Blues (1957/2021) [Official Digital Download 24/96]

Mildred Bailey - Sings… Me And The Blues (1957/2021) [Official Digital Download 24/96]
FLAC (tracks) 24-bit/96 kHz | Front Cover | Time - 44:06 minutes | 664 MB
Blues, Jazz | Label: RevOla, Official Digital Download

In all liklihood, Mildred Bailey SINGS "Me and the Blues" is not the sort of vintage popular American vocal record that has much of a past, present, or future to boast about. And yet it is one of those records that manages to hold its own on repeated listens. If there is a question to raise it would be in regard to the joy factor, as her blues sometimes sound like they want to come across with more of a triumphant delivery than the singer can summon. But her voice is transferred quite honestly and her clean, thin, sonorous tones are inflected with a genuine blue. I haven't heard her earlier material, so I can't compare these mid-forties sides to the highly esteemed recordings she made in the late 1930's with Red Norvo and others. Will Friedwald makes a disparaging remark or two about the arrangments on a few of these cuts, and the fourteen songs included are indeed drawn from four separate recording dates, ranging from March 1946 to May 1947. The good news is that Ellis Larkins plays a prominent role in much of the accompaniment, and to my ears, there is nothing overtly annoying in the band arrangements, even if, as Friedwald complains, Eddie Sauter is no Red Norvo.

TRACKLIST

1. Mildred Bailey - In Love In Vain. (Remastered)
2. Mildred Bailey - It's A Woman's Prerogative (Remastered)
3. Mildred Bailey - I'll Close My Eyes (Remastered)
4. Mildred Bailey - Me And The Blues (Remastered)
5. Mildred Bailey - At Sundown (Remastered)
6. Mildred Bailey - Lover, Come Back To Me (Remastered)
7. Mildred Bailey - Born To Be Blue (Remastered)
8. Mildred Bailey - You Started Something (Remastered)
9. Mildred Bailey - Can't We Be Friends? (Remastered)
10. Mildred Bailey - All That Glitters Is Not Gold (Remastered)
11. Mildred Bailey - Almost Like Being In Love (Remastered)
12. Mildred Bailey - The Heather On The Hill (Remastered)
13. Mildred Bailey - Gone On That Guy (Remastered)
14. Mildred Bailey - Don't Worry 'Bout Strangers (Remastered)

foobar2000 1.6.2 / Dynamic Range Meter 1.1.1
log date: 2021-08-01 14:21:06

––––––––––––––––––––––––––––––––––––––––
Analyzed: Mildred Bailey / Sings… Me And The Blues
––––––––––––––––––––––––––––––––––––––––

DR Peak RMS Duration Track
––––––––––––––––––––––––––––––––––––––––
DR11 -0.17 dB -14.44 dB 3:07 01-In Love In Vain. (Remastered)
DR11 -1.35 dB -14.63 dB 3:03 02-It's A Woman's Prerogative (Remastered)
DR9 -1.44 dB -13.72 dB 3:08 03-I'll Close My Eyes (Remastered)
DR10 -4.57 dB -17.04 dB 3:10 04-Me And The Blues (Remastered)
DR11 -4.40 dB -17.63 dB 3:25 05-At Sundown (Remastered)
DR11 -2.76 dB -16.93 dB 3:14 06-Lover, Come Back To Me (Remastered)
DR8 -5.09 dB -16.08 dB 2:55 07-Born To Be Blue (Remastered)
DR9 -4.56 dB -16.06 dB 3:05 08-You Started Something (Remastered)
DR8 -6.35 dB -17.60 dB 3:10 09-Can't We Be Friends? (Remastered)
DR11 -0.58 dB -14.04 dB 3:12 10-All That Glitters Is Not Gold (Remastered)
DR14 -0.31 dB -16.99 dB 3:09 11-Almost Like Being In Love (Remastered)
DR13 -1.12 dB -16.77 dB 3:15 12-The Heather On The Hill (Remastered)
DR15 -0.04 dB -17.93 dB 3:19 13-Gone On That Guy (Remastered)
DR15 0.00 dB -17.90 dB 3:01 14-Don't Worry 'Bout Strangers (Remastered)
––––––––––––––––––––––––––––––––––––––––

Number of tracks: 14
Official DR value: DR11

Samplerate: 96000 Hz
Channels: 2
Bits per sample: 24
Bitrate: 2004 kbps
Codec: FLAC
================================================================================



Thanks to the Original customer.