Moby - Reprise (2021) [Official Digital Download]

Posted By: pyatak
Moby - Reprise (2021) [Official Digital Download]

Moby - Reprise (2021) [Official Digital Download]
FLAC (tracks) 24-bit/48 kHz | Front Cover | Time - 70:32 minutes | 809 MB
Pop | Label: Deutsche Grammophon (DG), Official Digital Download

Musical pioneer Moby announces his new album Reprise, out May 28 on Deutsche Grammophon. Reprise sees Moby revisiting and reimagining musical highlights from his 30-year career. Together with the Budapest Art Orchestra, he has re-envisioned some of his most recognizable rave classics and anthems with new arrangements for orchestra and acoustic instruments. He’s also joined by a stellar line-up of guest artists from across the musical spectrum, including Alice Skye, Amythyst Kiah, Apollo Jane, Darlingside, Deitrick Haddon, Gregory Porter, Jim James, Kris Kristofferson, Luna Li, Mark Lanegan, Mindy Jones, Nataly Dawn, Skylar Grey and Víkingur Ólafsson.d

TRACKLIST

1. Moby - Everloving (Reprise Version)
2. Moby - Natural Blues (Reprise Version)
3. Moby - Go (Reprise Version)
4. Moby - Porcelain (Reprise Version)
5. Moby - Extreme Ways (Reprise Version)
6. Moby - Heroes (Reprise Version)
7. Moby - God Moving Over The Face Of The Waters (Reprise Version)
8. Moby - Why Does My Heart Feel So Bad (Reprise Version)
9. Moby - The Lonely Night (Reprise Version)
10. Moby - We Are All Made Of Stars (Reprise Version)
11. Moby - Lift Me Up (Reprise Version)
12. Moby - The Great Escape (Reprise Version)
13. Moby - Almost Home (Reprise Version)
14. Moby - The Last Day (Reprise Version)

foobar2000 1.6.2 / Dynamic Range Meter 1.1.1
log date: 2021-05-27 13:32:58

––––––––––––––––––––––––––––––––––––––––
Analyzed: Moby / Reprise
––––––––––––––––––––––––––––––––––––––––

DR Peak RMS Duration Track
––––––––––––––––––––––––––––––––––––––––
DR7 -0.56 dB -12.25 dB 3:19 01-Everloving (Reprise Version)
DR6 -0.73 dB -8.90 dB 4:30 02-Natural Blues (Reprise Version)
DR8 -0.56 dB -10.38 dB 3:43 03-Go (Reprise Version)
DR9 -0.56 dB -14.20 dB 5:54 04-Porcelain (Reprise Version)
DR6 -0.56 dB -10.89 dB 4:59 05-Extreme Ways (Reprise Version)
DR8 -0.56 dB -13.80 dB 5:18 06-Heroes (Reprise Version)
DR9 -0.58 dB -15.30 dB 7:42 07-God Moving Over The Face Of The Waters (Reprise Version)
DR9 -0.56 dB -13.39 dB 4:38 08-Why Does My Heart Feel So Bad (Reprise Version)
DR8 -0.74 dB -13.56 dB 5:43 09-The Lonely Night (Reprise Version)
DR7 -0.56 dB -12.28 dB 6:01 10-We Are All Made Of Stars (Reprise Version)
DR8 -0.73 dB -12.12 dB 5:22 11-Lift Me Up (Reprise Version)
DR11 -0.74 dB -15.12 dB 2:51 12-The Great Escape (Reprise Version)
DR7 -0.20 dB -11.69 dB 5:28 13-Almost Home (Reprise Version)
DR6 -0.56 dB -10.40 dB 5:13 14-The Last Day (Reprise Version)
––––––––––––––––––––––––––––––––––––––––

Number of tracks: 14
Official DR value: DR8

Samplerate: 48000 Hz
Channels: 2
Bits per sample: 24
Bitrate: 1734 kbps
Codec: FLAC
================================================================================



Thanks to the Original customer.