Les Arts Florissants & Paul Agnew - Monteverdi: Madrigali Vol. 3, Venezia (Live) (2017) [Official Digital Download]

Posted By: SERTiL
Les Arts Florissants & Paul Agnew - Monteverdi: Madrigali Vol. 3, Venezia (Live) (2017) [Official Digital Download]

Les Arts Florissants & Paul Agnew - Monteverdi: Madrigali Vol. 3, Venezia (Live) (2017)
FLAC (tracks) 24-bit/48 kHz | Time - 74:38 minutes | 700 MB
Studio Master, Official Digital Download | Artwork: Digital booklet

Recorded at the Cité de la Musique during the complete cycle of Monteverdi madrigals mounted in partnership with the Philharmonie de Paris and the Théâtre de Caen, the last volume in our trilogy probably contains the best-loved gems of a composer who had become maestro di cappella at St Mark’s in Venice, and finally entered the priesthood. Alongside the great operas that have survived from this period, the final madrigals methodically explore the multiple possibilities offered by the rapidly developing practice of basso continuo and by an unprecedented exploitation of solo voices. And, in that respect, the celebrated 'Combattimento di Tancredi e Clorinda' forms a spectacular finale to our Monteverdian adventure!

TRACKLIST

Claudio Monteverdi (1567 - 1643)

01. Madrigals, Book 7, SV 117-145: Sinfonia. Tempro la cetra, SV 117 (Live)
02. Madrigals, Book 7, SV 117-145: Al lume de le stelle, SV 138 (Live)
03. Madrigals, Book 7, SV 117-145: Con che soavità, SV 139 (Live)
04. Madrigals, Book 7, SV 117-145: Chiome d'oro, SV 143 (Live)
05. Madrigals, Book 7, SV 117-145: Interrotte speranze, SV 132 (Live)
06. Madrigals, Book 7, SV 117-145: Lettera amorosa, SV 141 (Live)
07. Madrigals, Book 7, SV 117-145: Ballo: Tirsi e Clori, SV 145 (Live)
08. Madrigals, Book 8, SV 146-167 "Madrigali guerrieri et amorosi": Altri canti d'Amor, SV146 (Live)
09. Madrigals, Book 8, SV 146-167 "Madrigali guerrieri et amorosi": Dolcissimo usignolo, SV 161 (Live)
10. Madrigals, Book 8, SV 146-167 "Madrigali guerrieri et amorosi": Lamento de la ninfa, SV 163 (Live)
11. Madrigals, Book 8, SV 146-167 "Madrigali guerrieri et amorosi": Combattimento di Tancredi e Clorinda, SV 153 (Live)

PERSONNEL
Les Arts Florissants
Paul Agnew, direction

foobar2000 1.3.7 / Dynamic Range Meter 1.1.1
log date: 2017-09-14 13:38:04

––––––––––––––––––––––––––––––––––––––––
Analyzed: Les Arts Florissants and Paul Agnew / Monteverdi: Madrigali Vol. 3, Venezia (Live) (1)
Les Arts Florissants, Hannah Morrison, Sean Clayton and Paul Agnew / Monteverdi: Madrigali Vol. 3, Venezia (Live) (2)
Les Arts Florissants, Lisandro Abadie, Miriam Allan, Zachary Wilder, Mhairi Lawson and Paul Agnew / Monteverdi: Madrigali Vol. 3, Venezia (Live) (3)
Les Arts Florissants, Lisandro Abadie, Zachary Wilder, Paul Agnew, Lucile Richardot, Miriam Allan and Mhairi Lawson / Monteverdi: Madrigali Vol. 3, Venezia (Live) (4)
Les Arts Florissants, Lucile Richardot and Paul Agnew / Monteverdi: Madrigali Vol. 3, Venezia (Live) (5)
Les Arts Florissants, Mhairi Lawson, Miriam Allan and Paul Agnew / Monteverdi: Madrigali Vol. 3, Venezia (Live) (6)
Les Arts Florissants, Miriam Allan, Cyril Costanzo, Hannah Morrison, Lucile Richardot and Paul Agnew / Monteverdi: Madrigali Vol. 3, Venezia (Live) (7)
Les Arts Florissants, Paul Agnew and Miriam Allan / Monteverdi: Madrigali Vol. 3, Venezia (Live) (8)
Les Arts Florissants, Paul Agnew and Zachary Wilder / Monteverdi: Madrigali Vol. 3, Venezia (Live) (9)
Les Arts Florissants, Paul Agnew, Cyril Costanzo and Sean Clayton / Monteverdi: Madrigali Vol. 3, Venezia (Live) (10)
Les Arts Florissants, Paul Agnew, Sean Clayton, Lisandro Abadie, Miriam Allan, Lucile Richardot and Hannah Morrison / Monteverdi: Madrigali Vol. 3, Venezia (Live) (11)
––––––––––––––––––––––––––––––––––––––––

DR Peak RMS Duration Track
––––––––––––––––––––––––––––––––––––––––
DR11 -10.67 dB -24.98 dB 1:14 01-Madrigals, Book 7, SV 117-145: Sinfonia. Tempro la cetra, SV 117 (Live)
DR16 -5.99 dB -28.54 dB 19:30 11-Madrigals, Book 8, SV 146-167 "Madrigali guerrieri et amorosi": Combattimento di Tancredi e Clorinda, SV 153 (Live)
DR12 -3.75 dB -24.89 dB 4:20 02-Madrigals, Book 7, SV 117-145: Al lume de le stelle, SV 138 (Live)
DR15 -2.47 dB -22.65 dB 9:29 07-Madrigals, Book 7, SV 117-145: Ballo: Tirsi e Clori, SV 145 (Live)
DR14 -8.44 dB -28.33 dB 8:32 06-Madrigals, Book 7, SV 117-145: Lettera amorosa, SV 141 (Live)
DR14 -2.52 dB -22.82 dB 3:11 04-Madrigals, Book 7, SV 117-145: Chiome d'oro, SV 143 (Live)
DR14 -2.63 dB -22.40 dB 4:13 09-Madrigals, Book 8, SV 146-167 "Madrigali guerrieri et amorosi": Dolcissimo usignolo, SV 161 (Live)
DR13 -4.00 dB -24.17 dB 5:06 03-Madrigals, Book 7, SV 117-145: Con che soavità, SV 139 (Live)
DR13 -2.69 dB -25.14 dB 3:11 05-Madrigals, Book 7, SV 117-145: Interrotte speranze, SV 132 (Live)
DR15 -3.29 dB -24.94 dB 6:27 10-Madrigals, Book 8, SV 146-167 "Madrigali guerrieri et amorosi": Lamento de la ninfa, SV 163 (Live)
DR16 -1.00 dB -22.75 dB 9:30 08-Madrigals, Book 8, SV 146-167 "Madrigali guerrieri et amorosi": Altri canti d'Amor, SV146 (Live)
––––––––––––––––––––––––––––––––––––––––

Number of tracks: 11
Official DR value: DR14

Samplerate: 48000 Hz
Channels: 2
Bits per sample: 24
Bitrate: 1426 kbps
Codec: FLAC
================================================================================


Thanks to the Original customer.