Symphonieorchester des Bayerischen Rundfunks & Herbert Blomstedt - Mozart: Symphonies Nos. 40 & 41 (2018) [24/48]

Posted By: SERTiL
Symphonieorchester des Bayerischen Rundfunks & Herbert Blomstedt - Mozart: Symphonies Nos. 40 & 41 (2018) [24/48]

Symphonieorchester des Bayerischen Rundfunks & Herbert Blomstedt - Mozart: Symphonies Nos. 40 & 41 (2018)
FLAC (tracks) 24-bit/48 kHz | Time - 72:33 minutes | 0.99 GB
Studio Master, Official Digital Download | Artwork: Digital Booklet

The symphonies in G minor, K. 550 (no. 40), and C Major, K. 551 (no. 41, also known as 'The Jupiter') are the ones that most represent Mozart's symphonic legacy to later generations of musicians. As early as 1800, the popular 'Great' G minor Symphony was praised as the 'painting of a passion-stricken soul'. Like its big sister, the 'Jupiter' Symphony in C Major, it numbers among the most-played works in classical music and has been immortalized in countless recordings. Nevertheless, these symphonies - probably the most profound ones before Beethoven - reveal themselves as something quite new in every interpretation. 'Mozart placed all the dark sides of human existence into his G minor Symphony', says Herbert Blomstedt, adding that its 'passion' continues to fascinate him. The eminent Swedish conductor Herbert Blomstedt, a close associate and regular guest conductor of the Symphonieorchester des Bayerischen Rundfunks, conducted the G minor Symphony in concerts on January 31 and February 1, 2013 and the 'Jupiter' Symphony on December 21 and 22, 2017 in the Herkulessaal of Munich's Residenz.

Tracklist:
1. Symphony No. 40 in G Minor, K. 550: I. Molto allegro 07:49
2. Symphony No. 40 in G Minor, K. 550: II. Andante 12:18
3. Symphony No. 40 in G Minor, K. 550: III. Menuetto: Allegretto 04:30
4. Symphony No. 40 in G Minor, K. 550: IV. Allegro assai 09:29
5. Symphony No. 41 in C Major, K. 551 "Jupiter" : I. Allegro vivace 10:58
6. Symphony No. 41 in C Major, K. 551 "Jupiter" : II. Andante cantabile 10:33
7. Symphony No. 41 in C Major, K. 551 "Jupiter" : III. Menuetto: Allegretto 05:09
8. Symphony No. 41 in C Major, K. 551 "Jupiter" : IV. Molto allegro 11:47

Personnel:
Symphonieorchester des Bayerischen Rundfunks
Herbert Blomstedt, conductor

foobar2000 1.3.7 / Dynamic Range Meter 1.1.1
log date: 2018-09-06 14:23:07

––––––––––––––––––––––––––––––––––––––––
Analyzed: Symphonieorchester des Bayerischen Rundfunks & Herbert Blomstedt / Mozart: Symphonies Nos. 40 & 41
––––––––––––––––––––––––––––––––––––––––

DR Peak RMS Duration Track
––––––––––––––––––––––––––––––––––––––––
DR12 -1.03 dB -17.25 dB 7:50 01-Symphony No. 40 in G Minor, K. 550: I. Molto allegro
DR13 -1.03 dB -20.07 dB 12:18 02-Symphony No. 40 in G Minor, K. 550: II. Andante
DR13 -1.03 dB -17.66 dB 4:30 03-Symphony No. 40 in G Minor, K. 550: III. Menuetto. Allegretto - Trio
DR13 -1.04 dB -17.61 dB 9:29 04-Symphony No. 40 in G Minor, K. 550: IV. Allegro assai
DR13 -1.40 dB -19.12 dB 10:58 05-Symphony No. 41 in C Major, K. 551 "Jupiter": I. Allegro vivace
DR14 -4.89 dB -24.55 dB 10:34 06-Symphony No. 41 in C Major, K. 551 "Jupiter": II. Andante cantabile
DR14 -1.81 dB -20.07 dB 5:10 07-Symphony No. 41 in C Major, K. 551 "Jupiter": III. Menuetto. Allegretto - Trio
DR14 -0.52 dB -17.84 dB 11:47 08-Symphony No. 41 in C Major, K. 551 "Jupiter": IV. Molto allegro
––––––––––––––––––––––––––––––––––––––––

Number of tracks: 8
Official DR value: DR13

Samplerate: 48000 Hz
Channels: 2
Bits per sample: 24
Bitrate: 1517 kbps
Codec: FLAC
================================================================================


Thanks to the Original customer.