Orchestra of the 18th Century, Frans Bruggen - Mozart: The Last Three Symphonies (2014) [Official Digital Download 24/44]

Posted By: SERTiL
Orchestra of the 18th Century, Frans Bruggen - Mozart: The Last Three Symphonies (2014) [Official Digital Download 24/44]

Orchestra of the 18th Century, Frans Bruggen - Mozart: The Last Three Symphonies (2014)
FLAC (tracks) 24-bit/44.1 kHz | Time - 91:09 minutes | 878 MB
Studio Master, Official Digital Download | Artwork: Digital booklet

More than three decades have elapsed since Frans Brüggen set down his earlier visions of the three final symphonies by Wolfgang Amadeus Mozart with his Orchestra of the 18th Century. Now, he has chosen to release his new views of these contrasting yet complementary works as part of his Grand Tour series on Glossa. The Dutch maestro has been regularly engaging with the music of the Salzburg genius throughout the time of his musical journey with the Orchestra of the 18th Century and the symphonies of Mozart have frequently appeared in their concert schedules. If the precise, original performing locations for these symphonies remain elusive, the three works Jupiter, K551, the E flat major, K543, and that evergreen study in the key of G minor, K550, known by people all around the world as the Mozart 40 all clamour for constant and fresh interpretations; these are precisely what Frans Brüggen delivers. Recordings on Glossa from Brüggen in recent times always made whilst on tour have included Mozarts concertos for horn, clarinet and violin, as well as the Requiem. With Stefano Russomanno providing a wellconsidered booklet essay, this new release of the three final Mozart symphonies, available on two CDs and recorded live in Rotterdam, provides eloquent testimony to Frans Brüggens ability to summon up the expressiveness and spontaneity demanded by Mozarts masterpieces from 1788.

TRACKLIST

CD 1

Symphony No. 39 in E-Flat Major, K. 543
01. I. Adagio - Allegro (11:06)
02. II. Andante con moto (8:24)
03. III. Menuetto: Allegretto (3:42)
04. IV. Finale: Allegro (7:57)

Symphony No. 40 in G Minor, K. 550
05. I. Molto allegro (6:46)
06. II. Andante (6:46)
07. III. Menuetto: Allegretto (3:48)
08. IV. Allegro assai (4:49)

CD 2

Symphony No. 41 in C Major, K. 551 'Jupiter'
01. I. Allegro vivace (11:38)
02. II. Andante cantabile (10:24)
03. III. Menuetto: Allegretto (4:18)
04. IV. Molto Allegro (11:36)

foobar2000 1.3.7 / Dynamic Range Meter 1.1.1
log date: 2017-04-11 16:39:27

––––––––––––––––––––––––––––––––––––––––
Analyzed: Orchestra Of The 18th Century, Frans Brüggen / Mozart: The Last Three Symphonies
––––––––––––––––––––––––––––––––––––––––

DR Peak RMS Duration Track
––––––––––––––––––––––––––––––––––––––––
DR13 -1.84 dB -18.91 dB 11:06 01-Symphony No. 39 in E-Flat Major, K. 543: I. Adagio - Allegro
DR13 -2.98 dB -22.48 dB 8:24 02-Symphony No. 39 in E-Flat Major, K. 543: II. Andante con moto
DR12 -4.64 dB -20.78 dB 3:42 03-Symphony No. 39 in E-Flat Major, K. 543: III. Menuetto: Allegretto
DR12 -1.59 dB -18.70 dB 7:57 04-Symphony No. 39 in E-Flat Major, K. 543: IV. Finale: Allegro
DR11 -1.57 dB -17.30 dB 6:46 05-Symphony No. 40 in G Minor, K. 550: I. Molto allegro
DR11 -2.80 dB -20.22 dB 6:46 06-Symphony No. 40 in G Minor, K. 550: II. Andante
DR12 -3.53 dB -19.17 dB 3:48 07-Symphony No. 40 in G Minor, K. 550: III. Menuetto: Allegretto
DR11 -2.57 dB -17.24 dB 4:49 08-Symphony No. 40 in G Minor, K. 550: IV. Allegro assai
DR12 -2.74 dB -19.13 dB 11:38 01-Symphony No. 41 in C Major, K. 551 'Jupiter': I. Allegro vivace
DR13 -4.06 dB -23.34 dB 10:24 02-Symphony No. 41 in C Major, K. 551 'Jupiter': II. Andante cantabile
DR12 -3.47 dB -19.94 dB 4:18 03-Symphony No. 41 in C Major, K. 551 'Jupiter': III. Menuetto: Allegretto
DR12 -1.64 dB -18.05 dB 11:36 04-Symphony No. 41 in C Major, K. 551 'Jupiter': IV. Molto Allegro
––––––––––––––––––––––––––––––––––––––––

Number of tracks: 12
Official DR value: DR12

Samplerate: 44100 Hz
Channels: 2
Bits per sample: 24
Bitrate: 1442 kbps
Codec: FLAC
================================================================================


Orchestra of the 18th Century, Frans Bruggen - Mozart: The Last Three Symphonies (2014) [Official Digital Download 24/44]


Thanks to the Original customer.