Seoul Philharmonic Orchestra & Myung Whun Chung - Mahler: Symphony No. 9 in D (2014) [Official Digital Download]

Posted By: SERTiL
Seoul Philharmonic Orchestra & Myung Whun Chung - Mahler: Symphony No. 9 in D (2014) [Official Digital Download]

Seoul Philharmonic Orchestra & Myung Whun Chung - Mahler: Symphony No. 9 in D (2014)
FLAC (tracks) 24-bit/44.1 kHz | Time - 79:53 minutes | 734 MB
Studio Master, Official Digital Download | Artwork: Front Cover

For the past 70 years, the Seoul Philharmonic Orchestra (‘The SPO’) has played a leading role in enriching the cultural lives of Korea’s citizens. In 2005, under the inspirational leadership of Maestro Myung-Whun Chung, the orchestra was reborn and this set a new standard for orchestral music in Korea. The SPO performs a wide range of repertoire from Mozart to Messiaen and continues to shatter box office records. Indeed, in 2011 the SPO became Asia’s first orchestra to sign an exclusive worldwide ten-CD contract with the Deutsche Grammophon record label. Impressively, the first two albums that were released instantly went platinum.

Tracklist:

Gustav Mahler (1860-1911)

01. Symphony No.9 in D: 1. Andante comodo
02. Symphony No.9 in D / 2. Satz: 2. Im Tempo eines gemaechlichen Laendlers. Etwas taeppisch und sehr derb
03. Symphony No.9 in D / 3. Satz: 3. Rondo-Burleske. Allegro assai. Sehr trotzig.
04. Symphony No.9 in D / 4. Satz: 4. Adagio. Sehr langsam und noch zurueckhaltend

Personnel:
Seoul Philharmonic Orchestra
Myung Whun Chung, conductor

foobar2000 1.3.7 / Dynamic Range Meter 1.1.1
log date: 2018-02-21 18:52:55

––––––––––––––––––––––––––––––––––––––––
Analyzed: Seoul Philharmonic Orchestra, Myung Whun Chung / Mahler Symphony No. 9 in D
––––––––––––––––––––––––––––––––––––––––

DR Peak RMS Duration Track
––––––––––––––––––––––––––––––––––––––––
DR14 -0.57 dB -21.11 dB 28:18 01-Symphony No.9 in D: 1. Andante comodo
DR15 -2.36 dB -22.71 dB 14:55 02-Symphony No.9 in D / 2. Satz: 2. Im Tempo eines gemaechlichen Laendlers. Etwas taeppisch und sehr derb
DR15 -0.26 dB -20.50 dB 12:42 03-Symphony No.9 in D / 3. Satz: 3. Rondo-Burleske. Allegro assai. Sehr trotzig.
DR15 -1.33 dB -22.28 dB 24:01 04-Symphony No.9 in D / 4. Satz: 4. Adagio. Sehr langsam und noch zurueckhaltend
––––––––––––––––––––––––––––––––––––––––

Number of tracks: 4
Official DR value: DR15

Samplerate: 44100 Hz
Channels: 2
Bits per sample: 24
Bitrate: 1261 kbps
Codec: FLAC
================================================================================


Thanks to the Original customer.