Tags
Language
Tags

Nat King Cole - Every Time I Feel The Spirit (1959/2020) [Official Digital Download 24/96]

Posted By: pyatak
Nat King Cole - Every Time I Feel The Spirit (1959/2020) [Official Digital Download 24/96]

Nat King Cole - Every Time I Feel The Spirit (1959/2020) [Official Digital Download 24/96]
FLAC (tracks) 24-bit/96 kHz | Front Cover | Time - 42:04 minutes | 866 MB
Jazz | Label: RevOla, Official Digital Download

Every Time I Feel the Spirit is a 1959 studio album by Nat King Cole, of spirituals, arranged by Gordon Jenkins. Cole is accompanied by the First Church of Deliverance Choir of Chicago, Illinois. The album was re-issued by Capitol Records in 1966 under the new title, Nat King Cole Sings Hymns and Spirituals.

TRACKLIST

1. Nat King Cole - Every Time I Feel The Spirit (Remastered)
2. Nat King Cole - I Want To Be Ready (Remastered)
3. Nat King Cole - Sweet Hour Of Prayer (Remastered)
4. Nat King Cole - Ain't Gonna Study War No More (Remastered)
5. Nat King Cole - I Found The Answer (Remastered)
6. Nat King Cole - Standin' In The Need Of Prayer (Remastered)
7. Nat King Cole - Oh, Mary, Don't You Weep (Remastered)
8. Nat King Cole - Go Down, Moses (Remastered)
9. Nat King Cole - Nobody Knows The Trouble I've Seen (Remastered)
10. Nat King Cole - In The Sweet By And By (Remastered)
11. Nat King Cole - I Couldn't Hear Nobody Pray (Remastered)
12. Nat King Cole - Steal Away (Remastered)
13. Nat King Cole - The First Baseball Game (Remastered)
14. Nat King Cole - This Holy Love (Remastered)
15. Nat King Cole - Peace Of Mind (Remastered)
16. Nat King Cole - Easter Sunday Morning (Remastered)
17. Nat King Cole - Believe (Remastered)
18. Nat King Cole - The Lighthouse In The Sky (Remastered)

foobar2000 1.6.2 / Dynamic Range Meter 1.1.1
log date: 2021-02-11 13:58:15

––––––––––––––––––––––––––––––––––––––––
Analyzed: Nat King Cole / Every Time I Feel The Spirit
––––––––––––––––––––––––––––––––––––––––

DR Peak RMS Duration Track
––––––––––––––––––––––––––––––––––––––––
DR11 0.00 dB -13.67 dB 1:50 01-Every Time I Feel The Spirit (Remastered)
DR11 0.00 dB -14.15 dB 1:47 02-I Want To Be Ready (Remastered)
DR12 0.00 dB -16.14 dB 1:51 03-Sweet Hour Of Prayer (Remastered)
DR11 0.00 dB -12.82 dB 2:39 04-Ain't Gonna Study War No More (Remastered)
DR12 0.00 dB -15.34 dB 2:01 05-I Found The Answer (Remastered)
DR11 0.00 dB -13.74 dB 2:13 06-Standin' In The Need Of Prayer (Remastered)
DR10 0.00 dB -13.05 dB 1:59 07-Oh, Mary, Don't You Weep (Remastered)
DR11 0.00 dB -14.81 dB 1:52 08-Go Down, Moses (Remastered)
DR11 0.00 dB -14.69 dB 2:46 09-Nobody Knows The Trouble I've Seen (Remastered)
DR11 0.00 dB -15.63 dB 1:56 10-In The Sweet By And By (Remastered)
DR10 0.00 dB -14.33 dB 1:54 11-I Couldn't Hear Nobody Pray (Remastered)
DR12 -0.12 dB -16.13 dB 2:49 12-Steal Away (Remastered)
DR11 -0.08 dB -13.63 dB 2:30 13-The First Baseball Game (Remastered)
DR11 0.00 dB -14.48 dB 3:05 14-This Holy Love (Remastered)
DR11 -0.01 dB -14.26 dB 2:56 15-Peace Of Mind (Remastered)
DR10 0.00 dB -12.39 dB 3:03 16-Easter Sunday Morning (Remastered)
DR11 0.00 dB -12.84 dB 2:23 17-Believe (Remastered)
DR11 0.00 dB -12.61 dB 2:38 18-The Lighthouse In The Sky (Remastered)
––––––––––––––––––––––––––––––––––––––––

Number of tracks: 18
Official DR value: DR11

Samplerate: 96000 Hz
Channels: 2
Bits per sample: 24
Bitrate: 2602 kbps
Codec: FLAC
================================================================================



Thanks to the Original customer.