Tags
Language
Tags

Neil Diamond - Acoustic Christmas (2016/2021) [Official Digital Download 24/96]

Posted By: pyatak
Neil Diamond - Acoustic Christmas (2016/2021) [Official Digital Download 24/96]

Neil Diamond - Acoustic Christmas (2016/2021) [Official Digital Download 24/96]
FLAC (tracks) 24-bit/96 kHz | Front Cover | Time - 37:25 minutes | 626 MB
Pop, X-Mass, Rock | Label: Capitol Records, Official Digital Download

Re-teaming with Don Was and Jacknife Lee, the pair who produced his 2014 album Melody Road, Neil Diamond cut Acoustic Christmas, his fourth holiday album and first since 2009's A Cherry Cherry Christmas. The title Acoustic Christmas suggests that this 2016 LP will be sparse, but it's hazy and open, consisting of much more than a man and a guitar. Usually he's supported by a full band – a rhythm section, another guitarist, a keyboardist, and backing vocalists – and that gives Acoustic Christmas some spunk, which is enough to keep things lively. If Diamond isn't always original – his version of "Children Go Where I Send Thee" follows the contours of Nick Lowe's 2013 version exactly – he nevertheless performs with gusto, particularly on the closing "Christmas Medley." That showmanship is ultimately what gives Acoustic Christmas its personality and is the reason to return to the record: it may not align with the spirit of the season, but it's charming nonetheless.

TRACKLIST

1. Neil Diamond - O Holy Night (2016 Version)
2. Neil Diamond - Do You Hear What I Hear
3. Neil Diamond - Christmas Prayers
4. Neil Diamond - Hark The Herald Angels Sing (2016 Version)
5. Neil Diamond - Mary's Boy Child
6. Neil Diamond - Silent Night (2016 Version)
7. Neil Diamond - Go Tell It On The Mountain
8. Neil Diamond - Children Go Where I Send Thee
9. Neil Diamond - Christmas In Killarney
10. Neil Diamond - Christmas Medley

foobar2000 1.6.2 / Dynamic Range Meter 1.1.1
log date: 2021-11-19 09:59:20

––––––––––––––––––––––––––––––––––––––––
Analyzed: Neil Diamond / Acoustic Christmas
––––––––––––––––––––––––––––––––––––––––

DR Peak RMS Duration Track
––––––––––––––––––––––––––––––––––––––––
DR7 -0.30 dB -9.76 dB 3:45 01-O Holy Night (2016 Version)
DR8 -0.30 dB -10.62 dB 4:03 02-Do You Hear What I Hear
DR7 -0.30 dB -10.06 dB 4:31 03-Christmas Prayers
DR6 -0.28 dB -8.29 dB 4:13 04-Hark The Herald Angels Sing (2016 Version)
DR7 -0.29 dB -8.85 dB 3:19 05-Mary's Boy Child
DR9 -0.30 dB -11.56 dB 3:42 06-Silent Night (2016 Version)
DR6 -0.28 dB -8.25 dB 3:17 07-Go Tell It On The Mountain
DR6 -0.29 dB -7.56 dB 5:26 08-Children Go Where I Send Thee
DR6 -0.28 dB -7.63 dB 2:02 09-Christmas In Killarney
DR5 -0.29 dB -7.16 dB 3:12 10-Christmas Medley
––––––––––––––––––––––––––––––––––––––––

Number of tracks: 10
Official DR value: DR7

Samplerate: 96000 Hz
Channels: 2
Bits per sample: 24
Bitrate: 2990 kbps
Codec: FLAC
================================================================================



Thanks to the Original customer.