Tags
Language
Tags

Neil Young - Prairie Wind (2005/2016) [Official Digital Download 24/192]

Posted By: pyatak
Neil Young - Prairie Wind (2005/2016) [Official Digital Download 24/192]

Neil Young - Prairie Wind (2005/2016) [Official Digital Download 24/192]
FLAC (tracks) 24-bit/192 kHz | Front Cover | Time - 52:05 minutes | 1,78 GB
Rock | Label: Reprise, Official Digital Download

Prairie Wind is the 26th studio album by Canadian / American musician Neil Young, released on September 27, 2005. After dalliances with 1960s soul music (Are You Passionate?) and rock opera (Greendale, which spawned a Young-directed film of the same name), Prairie Wind featured an acoustic-based sound reminiscent of his earlier commercially successful albums Harvest and Harvest Moon. The album was in part inspired by the illness and recent death of his father, Canadian sportswriter and novelist Scott Young, and the album is dedicated in part to the elder Young.

Young recorded the album in Nashville before undergoing minimally invasive surgery for an aneurysm in the spring of 2005, and some of the songs on the album appear to be informed by Young confronting his own mortality.

A premiere live performance of Prairie Wind was held in 18–19 August 2005 at the Ryman Auditorium in Nashville. Here, Young held a two-night concert where songs from the album were performed. These concerts became the subject of a film directed by Jonathan Demme entitled Heart of Gold.

Young debuted the album's closing track, "When God Made Me", at the Live 8 concert in Barrie, Ontario, Canada.

TRACKLIST

1. Neil Young - The Painter
2. Neil Young - No Wonder
3. Neil Young - Falling off of the Face of the Earth
4. Neil Young - Far from Home
5. Neil Young - It's a Dream
6. Neil Young - Prairie Wind
7. Neil Young - Here for You
8. Neil Young - This Old Guitar
9. Neil Young - He Was the King
10. Neil Young - When God Made Me

foobar2000 1.6.2 / Dynamic Range Meter 1.1.1
log date: 2021-04-20 17:00:58

––––––––––––––––––––––––––––––––––––––––
Analyzed: Neil Young / Prairie Wind
––––––––––––––––––––––––––––––––––––––––

DR Peak RMS Duration Track
––––––––––––––––––––––––––––––––––––––––
DR13 -0.46 dB -15.66 dB 4:36 01-The Painter
DR12 -0.86 dB -14.61 dB 5:46 02-No Wonder
DR11 -0.99 dB -14.17 dB 3:35 03-Falling off of the Face of the Earth
DR11 -0.16 dB -12.75 dB 3:47 04-Far from Home
DR12 -1.04 dB -14.70 dB 6:32 05-It's a Dream
DR11 -0.30 dB -12.75 dB 7:35 06-Prairie Wind
DR13 -0.22 dB -14.45 dB 4:32 07-Here for You
DR12 -1.06 dB -14.88 dB 5:33 08-This Old Guitar
DR12 -0.09 dB -13.75 dB 6:09 09-He Was the King
DR10 -2.67 dB -15.66 dB 4:06 10-When God Made Me
––––––––––––––––––––––––––––––––––––––––

Number of tracks: 10
Official DR value: DR12

Samplerate: 192000 Hz
Channels: 2
Bits per sample: 24
Bitrate: 4645 kbps
Codec: FLAC
================================================================================



Thanks to the Original customer.