Tags
Language
Tags

Neil Young - Silver & Gold (2020/2021) [Official Digital Download 24/192]

Posted By: pyatak
Neil Young - Silver & Gold (2020/2021) [Official Digital Download 24/192]

Neil Young - Silver & Gold (2020/2021) [Official Digital Download 24/192]
FLAC (tracks) 24-bit/192 kHz | Front Cover | Time - 39:08 minutes | 1,3 GB
Rock | Label: Reprise, Official Digital Download

Silver & Gold is the 23rd studio album by Canadian / American musician Neil Young, released on April 25, 2000. Many of these songs were written in the late 1990s, though the title track was written in 1981; by his own estimation, he had been trying to get "the take" on this song for around ten years.

The album was a nominee for Roots & Traditional Album of the Year – Solo at the 2001 Juno Awards. The album art is a photo taken by Neil's daughter Amber with the Game Boy Camera.

TRACKLIST

1. Neil Young - Good to See You
2. Neil Young - Silver & Gold
3. Neil Young - Daddy Went Walkin'
4. Neil Young - Buffalo Springfield Again
5. Neil Young - The Great Divide
6. Neil Young - Horseshoe Man
7. Neil Young - Red Sun
8. Neil Young - Distant Camera
9. Neil Young - Razor Love
10. Neil Young - Without Rings

foobar2000 1.6.2 / Dynamic Range Meter 1.1.1
log date: 2021-01-26 14:39:15

––––––––––––––––––––––––––––––––––––––––
Analyzed: Neil Young / Silver & Gold
––––––––––––––––––––––––––––––––––––––––

DR Peak RMS Duration Track
––––––––––––––––––––––––––––––––––––––––
DR12 -1.34 dB -16.17 dB 2:49 01-Good to See You
DR14 -0.49 dB -18.41 dB 3:17 02-Silver & Gold
DR13 -0.89 dB -18.52 dB 4:01 03-Daddy Went Walkin'
DR13 -0.32 dB -16.01 dB 3:23 04-Buffalo Springfield Again
DR16 0.00 dB -17.63 dB 4:35 05-The Great Divide
DR13 -0.39 dB -17.26 dB 4:00 06-Horseshoe Man
DR13 -0.80 dB -17.92 dB 2:48 07-Red Sun
DR11 -0.58 dB -14.20 dB 4:07 08-Distant Camera
DR13 -0.45 dB -16.95 dB 6:31 09-Razor Love
DR11 -0.35 dB -16.69 dB 3:40 10-Without Rings
––––––––––––––––––––––––––––––––––––––––

Number of tracks: 10
Official DR value: DR13

Samplerate: 192000 Hz
Channels: 2
Bits per sample: 24
Bitrate: 4422 kbps
Codec: FLAC
================================================================================



Thanks to the Original customer.