Tags
Language
Tags

Neil Young - Tonight's the Night (1975/2013) [Official Digital Download 24/192]

Posted By: pyatak
Neil Young - Tonight's the Night (1975/2013) [Official Digital Download 24/192]

Neil Young - Tonight's the Night (1975/2013) [Official Digital Download 24/192]
FLAC (tracks) 24-bit/192 kHz | Front Cover | Time - 44:48 minutes | 1,5 GB
Rock | Label: Reprise, Official Digital Download

Tonight's the Night is the sixth studio album by Canadian musician Neil Young, released in June 1975 on Reprise Records. It was recorded in August–September 1973, mostly on August 26, but its release was delayed for two years. In 2003, the album was ranked number 331 on Rolling Stone magazine's list of the 500 greatest albums of all time.

Tonight's the Night is a direct expression of grief. Crazy Horse guitarist Danny Whitten and Young's friend and roadie Bruce Berry had both died of drug overdoses in the months before the songs were written. The title track mentions Berry by name, while Whitten's guitar and vocal work highlight "Come on Baby Let's Go Downtown"; the latter was recorded live in 1970. The song would later appear, unedited, on a live album from the same concerts, Live at the Fillmore East, with Whitten credited as the sole author.

The band assembled for the album was known as The Santa Monica Flyers. It consisted of Young, Ben Keith, Nils Lofgren, and the Crazy Horse rhythm section of Billy Talbot and Ralph Molina. One track as stated above was taken from recordings of an earlier tour with Crazy Horse, and another from an earlier session with his band for Harvest, The Stray Gators.

TRACKLIST

1. Neil Young - Tonight's the Night
2. Neil Young - Speakin' Out
3. Neil Young - World on a String
4. Neil Young - Borrowed Tune
5. Neil Young - Come on Baby Let's Go Downtown
6. Neil Young - Mellow My Mind
7. Neil Young - Roll Another Number (For the Road)
8. Neil Young - Albuquerque
9. Neil Young - New Mama
10. Neil Young - Lookout Joe
11. Neil Young - Tired Eyes
12. Neil Young - Tonight's the Night, Pt. II

foobar2000 1.6.2 / Dynamic Range Meter 1.1.1
log date: 2021-04-19 13:57:18

––––––––––––––––––––––––––––––––––––––––
Analyzed: Neil Young / Tonight's the Night
––––––––––––––––––––––––––––––––––––––––

DR Peak RMS Duration Track
––––––––––––––––––––––––––––––––––––––––
DR13 -1.35 dB -18.59 dB 4:41 01-Tonight's the Night
DR13 -0.93 dB -18.18 dB 4:57 02-Speakin' Out
DR12 -1.81 dB -16.59 dB 2:25 03-World on a String
DR15 -4.03 dB -24.66 dB 3:25 04-Borrowed Tune
DR11 -3.19 dB -16.38 dB 3:35 05-Come on Baby Let's Go Downtown
DR12 -2.69 dB -17.82 dB 3:10 06-Mellow My Mind
DR12 -1.18 dB -16.61 dB 3:04 07-Roll Another Number (For the Road)
DR12 -2.23 dB -18.04 dB 4:01 08-Albuquerque
DR13 -4.83 dB -22.85 dB 2:13 09-New Mama
DR12 -1.50 dB -16.40 dB 3:54 10-Lookout Joe
DR13 -0.37 dB -17.74 dB 4:36 11-Tired Eyes
DR13 0.00 dB -16.49 dB 4:52 12-Tonight's the Night, Pt. II
––––––––––––––––––––––––––––––––––––––––

Number of tracks: 12
Official DR value: DR13

Samplerate: 192000 Hz
Channels: 2
Bits per sample: 24
Bitrate: 4813 kbps
Codec: FLAC
================================================================================



Thanks to the Original customer.