Tags
Language
Tags

Neil Young - Dead Man (Music from and Inspired by the Motion Picture) (1996/2019) [Official Digital Download]

Posted By: pyatak
Neil Young - Dead Man (Music from and Inspired by the Motion Picture) (1996/2019) [Official Digital Download]

Neil Young - Dead Man (Music from and Inspired by the Motion Picture) (1996/2019) [Official Digital Download]
FLAC (tracks) 24-bit/44.1 kHz | Front Cover | Time - 01:02:23 minutes | 646 MB
Soundtrack | Label: Vapor Records, Official Digital Download

The soundtrack to the 1995 Jim Jarmusch western-themed film of the same name starring Gary Farmer and Johnny Depp as William Blake. Accompanying the film is this album featuring instrumental music composed by Neil Young and performed entirely solo, mostly on electric guitar. The only vocal contribution is by Depp, whose reading of segments of William Blake's poetry is integral into Neil Young's music.

"The result is a haunting, sonic masterpiece that not only reflects the tone of the film, but interacts with and informs it. The music penetrates and engulfs, providing tension and immediacy, rumbling underneath the scenes like a dormant volcano preparing to erupt," writes reviewer Dead C for monsterfresh.com.

One of the most influential artists of all time, Neil Young has set a standard of artistic integrity and iconoclastic creativity. Before starting his multi-platinum solo career, he was a founding member of the folk-rock band Buffalo Springfield and worked with the groups Crazy Horse and Crosby, Stills and Nash. The Canadian singer-songwriter was recognized by the Rock and Roll Hall of Fame in 1995 for his work as a solo artist and was inducted into the Canadian Music Hall of Fame in 1982.

TRACKLIST

01. Neil Young - Guitar Solo, No. 1
02. Neil Young - The Round Stones beneath the Earth…
03. Neil Young - Guitar Solo, No. 2
04. Neil Young - Why Does Thou Hide Thyself, Clouds…
05. Neil Young - Organ Solo
06. Neil Young - Do You Know How to Use This Weapon?
07. Neil Young - Guitar Solo, No. 3
08. Neil Young - Nobody's Story
09. Neil Young - Guitar Solo, No. 4
10. Neil Young - Stupid White Men…
11. Neil Young - Guitar Solo, No. 5
12. Neil Young - Time for You to Leave, William Blake…
13. Neil Young - Guitar Solo, No. 6

foobar2000 1.3.16 / Dynamic Range Meter 1.1.1
log date: 2019-03-09 13:44:38

––––––––––––––––––––––––––––––––––––––––
Analyzed: Neil Young / Dead Man (Music from and Inspired by the Motion Picture)
––––––––––––––––––––––––––––––––––––––––

DR Peak RMS Duration Track
––––––––––––––––––––––––––––––––––––––––
DR11 -1.89 dB -19.69 dB 5:18 01-Guitar Solo, No. 1
DR11 -0.12 dB -14.73 dB 3:32 02-The Round Stones Beneath the Earth
DR9 -0.27 dB -13.24 dB 2:03 03-Guitar Solo, No. 2
DR11 -0.28 dB -16.71 dB 2:25 04-Why Dost Thou Hide Thyself in Clouds
DR9 -2.19 dB -14.61 dB 1:32 05-Organ Solo
DR13 -0.38 dB -17.90 dB 4:26 06-Do You Know How to Use This Weapon?
DR11 -0.47 dB -15.56 dB 4:31 07-Guitar Solo, No. 3
DR14 -0.36 dB -19.58 dB 6:36 08-Nobody's Story
DR12 -0.25 dB -15.40 dB 4:23 09-Guitar Solo, No. 4
DR17 -0.22 dB -21.53 dB 8:45 10-Stupid White Men…
DR8 -0.22 dB -11.29 dB 14:41 11-Guitar Solo, No. 5
DR12 -9.16 dB -25.96 dB 0:51 12-Time for You to Leave, William Blake…
DR10 -5.90 dB -22.39 dB 3:22 13-Guitar Solo, No. 6
––––––––––––––––––––––––––––––––––––––––

Number of tracks: 13
Official DR value: DR11

Samplerate: 44100 Hz
Channels: 2
Bits per sample: 24
Bitrate: 1298 kbps
Codec: FLAC
================================================================================



Thanks to the Original customer.