Neil Young & Crazy Horse - Live Rust (1979/2015) [Official Digital Download 24/192]

Posted By: pyatak
Neil Young & Crazy Horse - Live Rust (1979/2015) [Official Digital Download 24/192]

Neil Young & Crazy Horse - Live Rust (1979/2015) [Official Digital Download 24/192]
FLAC (tracks) 24-bit/192 kHz | Front Cover | Time - 75:44 minutes | 2,7 GB
Rock | Label: Reprise, Official Digital Download

Live Rust is a live album by Neil Young and Crazy Horse, recorded during their fall 1978 Rust Never Sleeps tour.

Live Rust is composed of performances recorded at several venues, including the Cow Palace near San Francisco. Young also directed a companion film, Rust Never Sleeps, under a pseudonym "Bernard Shakey", which consisted of footage from the Cow Palace.

Between tracks 2 and 3 on side 2 there is a stage announcement calling for people to get off of a tower and comments on an ongoing rainstorm. This is actually taken from Woodstock, almost a decade prior where Young performed as a member of Crosby, Stills, Nash & Young.

TRACKLIST

1. Neil Young & Crazy Horse - Sugar Mountain (Live)
2. Neil Young & Crazy Horse - I Am a Child (Live)
3. Neil Young & Crazy Horse - Comes a Time (Live)
4. Neil Young & Crazy Horse - After the Gold Rush (Live)
5. Neil Young & Crazy Horse - My My, Hey Hey (Out of the Blue) (Live)
6. Neil Young & Crazy Horse - When You Dance I Can Really Love (Live)
7. Neil Young & Crazy Horse - The Loner (Live)
8. Neil Young & Crazy Horse - The Needle and the Damage Done (Live)
9. Neil Young & Crazy Horse - Lotta Love (Live)
10. Neil Young & Crazy Horse - Sedan Delivery (Live)
11. Neil Young & Crazy Horse - Powderfinger (Live)
12. Neil Young & Crazy Horse - Cortez the Killer (Live)
13. Neil Young & Crazy Horse - Cinnamon Girl (Live)
14. Neil Young & Crazy Horse - Like a Hurricane (Live)
15. Neil Young & Crazy Horse - Hey Hey, My My (Into the Black) (Live)
16. Neil Young & Crazy Horse - Tonight's the Night (Live)

foobar2000 1.6.2 / Dynamic Range Meter 1.1.1
log date: 2021-04-19 15:56:53

––––––––––––––––––––––––––––––––––––––––
Analyzed: Neil Young & Crazy Horse / Live Rust
––––––––––––––––––––––––––––––––––––––––

DR Peak RMS Duration Track
––––––––––––––––––––––––––––––––––––––––
DR13 -2.28 dB -18.13 dB 5:03 01-Sugar Mountain (Live)
DR12 -4.30 dB -18.78 dB 3:01 02-I Am a Child (Live)
DR12 -3.20 dB -18.28 dB 3:16 03-Comes a Time (Live)
DR11 -3.14 dB -17.98 dB 3:49 04-After the Gold Rush (Live)
DR11 -5.46 dB -19.78 dB 4:14 05-My My, Hey Hey (Out of the Blue) (Live)
DR13 -0.17 dB -14.49 dB 3:51 06-When You Dance I Can Really Love (Live)
DR13 -0.44 dB -14.79 dB 4:53 07-The Loner (Live)
DR11 -2.55 dB -17.37 dB 3:07 08-The Needle and the Damage Done (Live)
DR12 -0.82 dB -15.39 dB 2:52 09-Lotta Love (Live)
DR12 0.00 dB -14.16 dB 4:55 10-Sedan Delivery (Live)
DR11 -1.25 dB -14.31 dB 5:50 11-Powderfinger (Live)
DR13 -0.07 dB -15.60 dB 7:28 12-Cortez the Killer (Live)
DR13 -0.15 dB -14.67 dB 3:25 13-Cinnamon Girl (Live)
DR12 -1.46 dB -15.73 dB 7:49 14-Like a Hurricane (Live)
DR13 -1.06 dB -15.49 dB 5:09 15-Hey Hey, My My (Into the Black) (Live)
DR12 -0.39 dB -14.78 dB 7:14 16-Tonight's the Night (Live)
––––––––––––––––––––––––––––––––––––––––

Number of tracks: 16
Official DR value: DR12

Samplerate: 192000 Hz
Channels: 2
Bits per sample: 24
Bitrate: 5031 kbps
Codec: FLAC
================================================================================



Thanks to the Original customer.