Noel Gallagher's High Flying Birds - Back The Way We Came: Vol. 1 (2011 - 2021) [Official Digital Download 24/96]

Posted By: pyatak
Noel Gallagher's High Flying Birds - Back The Way We Came: Vol. 1 (2011 - 2021) [Official Digital Download 24/96]

Noel Gallagher's High Flying Birds - Back The Way We Came: Vol. 1 (2011 - 2021) [Official Digital Download 24/96]
FLAC (tracks) 24-bit/96 kHz | Front Cover | Time - 02:22:48 minutes | 2,99 GB
Rock | Label: Sour Mash Records Ltd, Official Digital Download

Back The Way We Came: Vol 1 (2011-2021) is a Best Of celebrating the first decade of Noel Gallagher’s High Flying Birds.

This double album, curated and compiled entirely by Noel, includes tracks from the three Number One albums (‘Noel Gallagher’s High Flying Birds’, ‘Chasing Yesterday’ and ‘Who Built The Moon?’) and the three acclaimed EPs (‘Black Star Dancing’, ‘This Is The Place’ and ‘Blue Moon Rising’) - plus 2 previously unreleased tracks including the brand new single ‘We’re On Our Way Now’.

TRACKLIST

Disc 1

1. Everybody’s On The Run
2. The Death Of You And Me
3. AKA … What A Life!
4. If I Had A Gun …
5. In The Heat Of The Moment
6. Riverman
7. Lock All The Doors
8. The Dying Of The Light
9. Ballad Of The Mighty I
10. We’re On Our Way Now

Disc 2

1. Black Star Dancing
2. Holy Mountain (Remastered)
3. A Dream Is All I Need To Get By
4. This Is The Place
5. It’s A Beautiful World
6. Blue Moon Rising
7. Dead In The Water (Live At RTÉ 2FM Studios, Dublin)
8. Flying On The Ground

Bonus Disc

1. It’s A Beautiful World (Instrumental)
2. If I Had A Gun … (Acoustic Version)
3. Black Star Dancing (Skeleton Key Remix)
4. Black Star Dancing (12” Mix Instrumental)
5. The Man Who Built The Moon (Acoustic Version)
6. International Magic (Demo)
7. Blue Moon Rising (Sons Of The Desert Remix)
8. The Dying Of The Light (Acoustic Version)
9. This Is The Place (Skeleton Key Remix)
10. This Is The Place (Instrumental)
11. Black Star Dancing (The Reflex Revision)
12. Be Careful What You Wish For (Instrumental)

foobar2000 1.6.2 / Dynamic Range Meter 1.1.1
log date: 2021-06-10 23:45:24

––––––––––––––––––––––––––––––––––––––––
Analyzed: Noel Gallagher's High Flying Birds / Back The Way We Came: Vol. 1 (2011 - 2021)
––––––––––––––––––––––––––––––––––––––––

DR Peak RMS Duration Track
––––––––––––––––––––––––––––––––––––––––
DR5 -0.10 dB -6.56 dB 5:32 01-Everybody's On The Run
DR6 -0.10 dB -7.75 dB 3:29 02-The Death Of You And Me
DR5 -0.80 dB -6.80 dB 4:24 03-AKA… What A Life!
DR4 -1.50 dB -6.96 dB 4:10 04-If I Had A Gun…
DR5 -0.23 dB -6.82 dB 3:30 05-In The Heat Of The Moment
DR5 -0.10 dB -6.89 dB 5:43 06-Riverman
DR5 -0.69 dB -6.56 dB 3:43 07-Lock All The Doors
DR5 -0.10 dB -6.49 dB 5:08 08-The Dying Of The Light
DR6 -0.11 dB -7.51 dB 5:09 09-Ballad Of The Mighty I
DR5 -0.15 dB -6.90 dB 4:08 10-We're On Our Way Now
DR7 -0.08 dB -8.38 dB 4:22 11-Black Star Dancing
DR5 -0.05 dB -6.00 dB 3:57 12-Holy Mountain (Remastered)
DR5 -0.54 dB -7.79 dB 4:08 13-A Dream Is All I Need To Get By
DR4 -1.15 dB -6.47 dB 4:18 14-This Is The Place
DR6 0.00 dB -7.82 dB 5:19 15-It's A Beautiful World
DR4 -0.96 dB -7.12 dB 3:44 16-Blue Moon Rising
DR7 -0.25 dB -11.07 dB 5:22 17-Dead In The Water (Live at RTÉ 2FM Studios, Dublin)
DR6 -0.15 dB -6.84 dB 3:14 18-Flying On The Ground
DR6 0.00 dB -7.76 dB 5:24 19-It's A Beautiful World (Instrumental)
DR6 -0.15 dB -9.06 dB 4:08 20-If I Had A Gun… (Acoustic Version)
DR6 -0.15 dB -8.51 dB 4:15 21-Black Star Dancing (Skeleton Key Remix)
DR7 -1.03 dB -9.18 dB 4:39 22-Black Star Dancing (12" Mix Instrumental)
DR7 -0.15 dB -9.19 dB 4:31 23-The Man Who Built The Moon (Acoustic Version)
DR5 0.00 dB -6.40 dB 5:17 24-International Magic (Demo)
DR7 -0.15 dB -8.01 dB 7:05 25-Blue Moon Rising (Sons Of The Desert Remix)
DR7 -0.15 dB -8.72 dB 5:13 26-The Dying Of The Light (Acoustic Version)
DR6 -0.15 dB -6.77 dB 3:05 27-This Is The Place (Skeleton Key Remix)
DR4 -1.09 dB -6.58 dB 4:17 28-This Is The Place (Instrumental)
DR7 -0.67 dB -8.88 dB 10:06 29-Black Star Dancing (The Reflex Revision)
DR6 0.00 dB -7.66 dB 5:42 30-Be Careful What You Wish For (Instrumental)
––––––––––––––––––––––––––––––––––––––––

Number of tracks: 30
Official DR value: DR6

Samplerate: 96000 Hz
Channels: 2
Bits per sample: 24
Bitrate: 2746 kbps
Codec: FLAC
================================================================================



Thanks to the Original customer.