Tags
Language
Tags

Norah Jones - I Dream of Christmas (2021) [Official Digital Download 24/96]

Posted By: pyatak
Norah Jones - I Dream of Christmas (2021) [Official Digital Download 24/96]

Norah Jones - I Dream of Christmas (2021) [Official Digital Download 24/96]
FLAC (tracks) 24-bit/96 kHz | Front Cover | Time - 42:21 minutes | 889 MB
Jazz, X-Mas | Label: Blue Note Records, Official Digital Download

Norah Jones has announced the release of her first-ever holiday album, I Dream Of Christmas, which will arrive this October.

The nine-time Grammy-winning singer, songwriter, and pianist has recorded a collection of covers of seasonal classics alongside her own original Christmas-themed songs. The covers featured on the album include “White Christmas”, “Winter Wonderland,” and “Run Rudolph Run.”

I Dream Of Christmas will be released on October 15 via Blue Note Records and will be available on vinyl, CD, and digital download. The first track from the record, “Christmas Calling (Jolly Jones)” is available to stream and download now.

TRACKLIST

1. Christmas Calling (Jolly Jones) (03:20)
2. Christmas Don't Be Late (02:40)
3. Christmas Glow (02:45)
4. White Christmas (03:05)
5. Christmastime (04:00)
6. Blue Christmas (03:24)
7. It's Only Christmas Once A Year (02:04)
8. You're Not Alone (03:52)
9. Winter Wonderland (03:32)
10. A Holiday With You (02:40)
11. Run Rudolph Run (03:11)
12. Christmas Time Is Here (03:45)
13. What Are You Doing New Year's Eve? (04:03)

foobar2000 1.6.2 / Dynamic Range Meter 1.1.1
log date: 2021-10-13 13:36:47

––––––––––––––––––––––––––––––––––––––––
Analyzed: Norah Jones / I Dream of Christmas
––––––––––––––––––––––––––––––––––––––––

DR Peak RMS Duration Track
––––––––––––––––––––––––––––––––––––––––
DR7 -0.20 dB -8.71 dB 3:20 01-Christmas Calling (Jolly Jones)
DR6 -0.20 dB -9.78 dB 2:40 02-Christmas Don't Be Late
DR6 -0.20 dB -8.32 dB 2:45 03-Christmas Glow
DR8 -0.20 dB -10.78 dB 3:05 04-White Christmas
DR6 -0.20 dB -8.72 dB 4:00 05-Christmastime
DR9 -0.20 dB -11.57 dB 3:25 06-Blue Christmas
DR10 -0.21 dB -12.74 dB 2:04 07-It's Only Christmas Once a Year
DR6 -0.20 dB -9.08 dB 3:52 08-You're Not Alone
DR7 -0.21 dB -9.44 dB 3:33 09-Winter Wonderland
DR6 -0.20 dB -9.63 dB 2:40 10-A Holiday with You
DR7 -0.20 dB -8.60 dB 3:12 11-Run Rudolph Run
DR8 -0.20 dB -10.23 dB 3:45 12-Christmas Time Is Here
DR9 -0.20 dB -11.35 dB 4:04 13-What Are You Doing New Year's Eve?
––––––––––––––––––––––––––––––––––––––––

Number of tracks: 13
Official DR value: DR7

Samplerate: 96000 Hz
Channels: 2
Bits per sample: 24
Bitrate: 2990 kbps
Codec: FLAC
================================================================================



Thanks to the Original customer.