Olga Scheps & Kuss Quartett - Mieczyslaw Weinberg: Piano Quintet, Op. 18 (2019) [Official Digital Download 24/48]

Posted By: SERTiL
Olga Scheps & Kuss Quartett - Mieczyslaw Weinberg: Piano Quintet, Op. 18 (2019) [Official Digital Download 24/48]

Olga Scheps & Kuss Quartett - Mieczyslaw Weinberg: Piano Quintet, Op. 18 (2019)
FLAC (tracks) 24-bit/48 kHz | Time - 45:28 minutes | 433 MB
Studio Master, Official Digital Download | Artwork: Digital Booklet

ECHO classical music winner Olga Scheps and the Kuss Quartet are convincingly committed to the piano quintet of Mieczyslaw Weinberg, whose 100th birthday will be celebrated in December 2019. In recent years, Mieczyslaw Weinberg has received the attention due to the long-unknown Soviet composer, who lived from 1919 to 1996 - with performances of his operas at renowned festivals and the inclusion of his instrumental works in the repertoire. A central composition is his piano quintet, which was composed in Moscow in 1944, during the Second World War. Weinberg was a close friend of Dmitri Shostakovich, but this sometimes proved to be a career hindrance, as he was perceived as a kind of Shostakovich in miniature
Olga Scheps, ECHO Klassik winner and the renowned Kuss Quartet have long been committed to Weinberg's unjustly neglected oeuvre - and this commitment also characterizes her passionate, almost relentlessly urging interpretation, which adequately confirms the singular rank of this work.

Tracklist:
1. I. Moderato con moto (8:44)
2. II. Allegretto (7:16)
3. III. Presto (6:19)
4. IV. Largo (14:11)
5. V. Allegro agitato (9:03)

foobar2000 1.3.7 / Dynamic Range Meter 1.1.1
log date: 2019-11-08 15:41:47

––––––––––––––––––––––––––––––––––––––––
Analyzed: Olga Scheps / Mieczyslaw Weinberg: Piano Quintet, Op. 18
––––––––––––––––––––––––––––––––––––––––

DR Peak RMS Duration Track
––––––––––––––––––––––––––––––––––––––––
DR15 -0.17 dB -20.96 dB 8:41 01-I. Moderato con moto
DR14 -0.19 dB -21.70 dB 7:16 02-II. Allegretto
DR13 -0.19 dB -18.49 dB 6:20 03-III. Presto
DR16 -0.18 dB -21.90 dB 14:11 04-IV. Largo
DR13 -0.17 dB -18.41 dB 9:05 05-V. Allegro agitato
––––––––––––––––––––––––––––––––––––––––

Number of tracks: 5
Official DR value: DR14

Samplerate: 48000 Hz
Channels: 2
Bits per sample: 24
Bitrate: 1364 kbps
Codec: FLAC
================================================================================


Thanks to the Original customer.