One Ok Rock - Ambitions (2017) {Japanese Version} [Official Digital Download 24-bit/48 kHz]

Posted By: popsakov
One Ok Rock - Ambitions (2017) {Japanese Version} [Official Digital Download 24-bit/48 kHz]

One Ok Rock - Ambitions (2017) {Japanese Version}
FLAC (Tracks) 24-bit/48 kHz | Front Cover | 00:49:29 | 669 Mb | 5% Recovery
Official Digital Download | Studio Master | Alternative/Indie Rock, JRock | © 2017 Aer-born

Japanese quartet One OK Rock blast into the Western market with their eighth album, Ambitions. After signing with Fueled by Ramen in late 2016, One OK Rock – led by Takahiro Moriuchi, who sings in impeccable English – take their songwriting and production quality to a new level, encompassing a full Warped Tour scope that incorporates pop-punk, alt-emo, and even a little atmospheric post-hardcore energy akin to That's the Spirit-era Bring Me the Horizon. Ambitions includes highlights like "Bombs Away" and "Taking Off," as well as singles "Bedroom Warfare" and the sparkling Hands Like Houses-esque "We Are." All Time Low's Alex Gaskarth appears on "Jaded," while 5 Seconds of Summer join "Take What You Want." The album debuted in the Billboard 200 and topped the Japanese charts upon release.
~ Neil Z. Yeung, All Music
***************

Track List:

01. Ambitions -Introduction- [1:23]
02. Bombs away [4:24]
03. Taking Off [3:39]
04. We are [4:15]
05. 20/20 [3:19]
06. Always coming back [3:34]
07. Bedroom Warfare [3:23]
08. Lost in Tonight [2:52]
09. I was King [3:59]
10. Listen (featuring Avril Lavigne) [3:39]
11. One Way Ticket [3:37]
12. Bon Voyage [4:06]
13. Start Again [3:14]
14. Take what you want (featuring 5 Seconds of Summer) [4:04]

foobar2000 1.2.6 / Dynamic Range Meter 1.1.1
log date: 2017-02-02 23:56:38

––––––––––––––––––––––––––––––––––––––––
Analyzed: ONE OK ROCK / Ambitions(24bit/48kHz)
––––––––––––––––––––––––––––––––––––––––

DR Peak RMS Duration Track
––––––––––––––––––––––––––––––––––––––––
DR9 -0.38 dB -13.30 dB 1:23 01-Ambitions -Introduction-
DR4 -0.31 dB -7.18 dB 4:24 02-Bombs away
DR5 0.00 dB -6.64 dB 3:39 03-Taking Off
DR4 -0.32 dB -7.72 dB 4:15 04-We are
DR5 -0.24 dB -6.69 dB 3:19 05-20/20
DR6 0.00 dB -8.74 dB 3:34 06-Always coming back
DR5 0.00 dB -6.28 dB 3:23 07-Bedroom Warfare
DR5 -1.10 dB -6.70 dB 2:52 08-Lost in Tonight
DR5 -0.29 dB -7.18 dB 3:59 09-I was King
DR5 -0.30 dB -8.11 dB 3:39 10-Listen (featuring Avril Lavigne)
DR4 -0.31 dB -6.91 dB 3:37 11-One Way Ticket
DR4 -0.27 dB -6.83 dB 4:06 12-Bon Voyage
DR5 -0.26 dB -6.93 dB 3:14 13-Start Again
DR5 -0.26 dB -7.37 dB 4:04 14-Take what you want (featuring 5 Seconds of Summer)
––––––––––––––––––––––––––––––––––––––––

Number of tracks: 14
Official DR value: DR5

Samplerate: 48000 Hz
Channels: 2
Bits per sample: 24
Bitrate: 1782 kbps
Codec: FLAC
================================================================================

All thanks go to the original customer

> Visit my blog <