Ophélie Gaillard, Louis Schwizgebel-Wang & Fabio Di Casola - Brahms (Édition 5.1) (2013) [Official Digital Download MCH 24/88]

Posted By: SERTiL
Ophélie Gaillard, Louis Schwizgebel-Wang & Fabio Di Casola - Brahms (Édition 5.1) (2013) [Official Digital Download MCH 24/88]

Ophélie Gaillard, Louis Schwizgebel-Wang & Fabio Di Casola - Brahms (Édition 5.1) (2013)
FLAC 5.1 (tracks) 24-bit/88.2 kHz | Time - 75:25 minutes | 2,72 GB
Studio Master, Official Digital Download | Artwork: Digital Booklet

Brahms's important output of 24 chamber scores dominated the second half of the 19th century, as that of Beethoven had dominated the first half. His corpus was thus a response to that of Beethoven, his model, and to that of Mendelssohn, who was likewise born in Hamburg and also composed two cello sonatas. In 1890, aged only 57, Brahms resolved to give up composing but he had reckoned without the inspiration that his meeting with the Meiningen clarinetist Richard Mühlfeld was to have on his creative imagination. He subsequently added four scores for clarinet to his output, including this Trio Op. 114.

“Gaillard has always displayed an extraordinary palette of colours and these some alive more than ever on this recording…the voyage into earlier repertoire since her last such disc…seems to have informed her playing with even more subtlety than before.” (Gramophone)

Tracklist:

Johannes Brahms (1833-1897)

01. Sonate pour violoncelle et piano No. 2 en Fa Majeur, Op. 99: I. Allegro vivace
02. Sonate pour violoncelle et piano No. 2 en Fa Majeur, Op. 99: II. Adagio affettuoso
03. Sonate pour violoncelle et piano No. 2 en Fa Majeur, Op. 99: III. Allegro passionato
04. Sonate pour violoncelle et piano No. 2 en Fa Majeur, Op. 99: IV. Allegro
05. Sonate pour violoncelle et piano No. 1 en Mi Mineur, Op. 38: I. Allegro
06. Sonate pour violoncelle et piano No. 1 en Mi Mineur, Op. 38: II. Allegretto quasi minuetto
07. Sonate pour violoncelle et piano No. 1 en Mi Mineur, Op. 38: III. Allegro
08. Trio pour clarinette, violoncelle et piano en La Mineur, Op. 114: I. Allegro alla breve
09. Trio pour clarinette, violoncelle et piano en La Mineur, Op. 114: II. Adagio
10. Trio pour clarinette, violoncelle et piano en La Mineur, Op. 114: III. Andantini grazioso
11. Trio pour clarinette, violoncelle et piano en La Mineur, Op. 114: IV. Finale: allegro

Personnel:
Ophélie Gaillard, cello
Fabio Di Càsola, clarinet (on Clarinet Trio in A minor, Op. 114)
Louis Schwizgebel, piano

ATTENTION: Here is the MULTICHANNEL version!

foobar2000 1.3.7 / Dynamic Range Meter 1.1.1
log date: 2018-04-22 14:29:58

––––––––––––––––––––––––––––––––––––––––
Analyzed: Ophélie Gaillard, Louis Schwizgebel-Wang, Fabio Di Casola / Brahms
––––––––––––––––––––––––––––––––––––––––

DR Peak RMS Duration Track
––––––––––––––––––––––––––––––––––––––––
DR15 -0.40 dB -23.49 dB 14:17 01-Sonate pour violoncelle et piano No. 2 en Fa Majeur, Op. 99: I. Allegro vivace
DR14 -3.14 dB -25.76 dB 5:18 02-Sonate pour violoncelle et piano No. 2 en Fa Majeur, Op. 99: II. Adagio affettuoso
DR12 -0.41 dB -20.73 dB 6:23 03-Sonate pour violoncelle et piano No. 2 en Fa Majeur, Op. 99: III. Allegro passionato
DR13 -0.41 dB -20.62 dB 8:30 04-Sonate pour violoncelle et piano No. 2 en Fa Majeur, Op. 99: IV. Allegro
DR15 -0.41 dB -25.84 dB 6:22 05-Sonate pour violoncelle et piano No. 1 en Mi Mineur, Op. 38: I. Allegro
DR13 -0.39 dB -20.49 dB 6:46 06-Sonate pour violoncelle et piano No. 1 en Mi Mineur, Op. 38: II. Allegretto quasi minuetto
DR13 -0.40 dB -21.85 dB 4:33 07-Sonate pour violoncelle et piano No. 1 en Mi Mineur, Op. 38: III. Allegro
DR13 -0.43 dB -22.26 dB 7:31 08-Trio pour clarinette, violoncelle et piano en La Mineur, Op. 114: I. Allegro alla breve
DR13 -5.45 dB -27.64 dB 7:28 09-Trio pour clarinette, violoncelle et piano en La Mineur, Op. 114: II. Adagio
DR12 -1.22 dB -23.81 dB 3:57 10-Trio pour clarinette, violoncelle et piano en La Mineur, Op. 114: III. Andantini grazioso
DR12 -0.43 dB -21.89 dB 4:25 11-Trio pour clarinette, violoncelle et piano en La Mineur, Op. 114: IV. Finale: allegro
––––––––––––––––––––––––––––––––––––––––

Number of tracks: 11
Official DR value: DR13

Samplerate: 88200 Hz
Channels: 6
Bits per sample: 24
Bitrate: 4991 kbps
Codec: FLAC
================================================================================


Thanks to the Original customer.