Pat Metheny - New Chautauqua (Remastered) (1979/2020) [Official Digital Download 24/96]

Posted By: pyatak
Pat Metheny - New Chautauqua (Remastered) (1979/2020) [Official Digital Download 24/96]

Pat Metheny - New Chautauqua (Remastered) (1979/2020) [Official Digital Download 24/96]
FLAC (tracks) 24-bit/96 kHz | Front Cover | Time - 38:21 minutes | 715 MB
Jazz | Label: ECM Records, Official Digital Download

Metheny alone and, mostly, acoustic, playing folk-flavoured compositions. Pat viewed this as “an autobiographical album. It’s got a lot to do with the American Midwest. It’s very open and spacious.”

Pat Metheny is one of those rare artists whose virtuosity is so fluid that it is no longer a necessary lens through which to view his music. Despite the 43 strings at his disposal for this fourth ECM outing, Metheny opts for pure expanse over density. While his first three projects found him fronting equally captivating support, here we see the Missouri native charting heretofore-unrecorded autobiographical depths that remain as resonant as they ever were.

New Chautauqua is bookended by two travel diaries. The title opener cracks like a morning egg onto a sizzling griddle. Here, as throughout, we find an entire desert compressed into a single grain of sand, needing only the microscope of Metheny’s meticulous syncopations to make our way through its staggering terrain. At the far end of the tunnel is new life lit by “Daybreak.” Additional guitars and bass ooze with optimism in this divided smile, holding fast to the idea of—but never the physical need for—a destination.

Along the way, we encounter a string of contemplative rest stops, each the trail marker of a limpid night. Every verse of “Country Poem” makes for a fitting prelude to the diptych of “Long-Ago Child/Fallen Star,” in which the 15-string harp guitar dialogues with an open slide in the lead. Such delicacy can only be drawn in negative space, using pigments of regret and joy in equal measure. A heavy pause inhales deeply before expelling its acoustic splendor, hovering over arpeggiated flowers like a silent and thoughtful bee whose days are numbered, but whose memory lives on through a psychological pollen of sorts that cross-fertilizes vaster, less visible pastures. “Hermitage” might as well be the album’s title, so thoughtful are its steps, each a point along a circle of plot and resolution. Yet the needle in the New Chautauqua haystack is “Sueño Con Mexico.” Threaded by an acoustic ostinato, around which Metheny gilds ornamental embraces, its unyielding grace never fails to unhinge. It has the entire world’s natural cycles in its purview, turning as might an eddy in an April stream.

Metheny’s is a highly refined world that is as loose as it is exacting, written in the kind of polished script that can only come from a musical path forged through love of communication. Among decades of varied output, this stands as one of his most vivid sonic postcards for the yet-to-be.

Pat Metheny, electric 6- and 12-string guitars, acoustic guitar, 15-string harp guitar, electric bass

Recorded August 1978 at Talent Studio, Oslo
Engineer: Jan Erik Kongshaug
Produced by Manfred Eicher

Digitally remastered by Christoph Stickel

TRACKLIST

1. Pat Metheny - New Chautauqua
2. Pat Metheny - Country Poem
3. Pat Metheny - Long Ago Child / Fallen Star
4. Pat Metheny - Hermitage
5. Pat Metheny - Sueño Con Mexico
6. Pat Metheny - Daybreak

foobar2000 1.3.16 / Dynamic Range Meter 1.1.1
log date: 2020-08-01 19:30:07

––––––––––––––––––––––––––––––––––––––––
Analyzed: Pat Metheny / New Chautauqua (Remastered)
––––––––––––––––––––––––––––––––––––––––

DR Peak RMS Duration Track
––––––––––––––––––––––––––––––––––––––––
DR13 -0.69 dB -19.46 dB 5:25 01-New Chautauqua
DR13 -3.73 dB -23.72 dB 2:36 02-Country Poem
DR14 -2.91 dB -23.26 dB 10:21 03-Long Ago Child / Fallen Star
DR14 -2.84 dB -22.94 dB 5:42 04-Hermitage
DR15 -2.18 dB -24.08 dB 6:00 05-Sueño Con Mexico
DR16 -0.55 dB -21.80 dB 8:40 06-Daybreak
––––––––––––––––––––––––––––––––––––––––

Number of tracks: 6
Official DR value: DR14

Samplerate: 96000 Hz
Channels: 2
Bits per sample: 24
Bitrate: 2626 kbps
Codec: FLAC
================================================================================



Thanks to the Original customer.