Pat Metheny Group - American Garage (Remastered) (1979/2020) [Official Digital Download 24/96]

Posted By: pyatak
Pat Metheny Group - American Garage (Remastered) (1979/2020) [Official Digital Download 24/96]

Pat Metheny Group - American Garage (Remastered) (1979/2020) [Official Digital Download 24/96]
FLAC (tracks) 24-bit/96 kHz | Front Cover | Time - 34:51 minutes | 754 MB
Jazz | Label: ECM Records, Official Digital Download

A young group openly acknowledging the influence of popular music. This cheerful, breezy jazz-rock from the Pat Metheny Group was recorded in 1979.. Includes the PMG signature tune “(Cross The) Heartland”.

Pat Metheny is one of those rare artists whose virtuosity is so fluid that it is no longer a necessary lens through which to view his music. Despite the 43 strings at his disposal for this fourth ECM outing, Metheny opts for pure expanse over density. While his first three projects found him fronting equally captivating support, here we see the Missouri native charting heretofore-unrecorded autobiographical depths that remain as resonant as they ever were.

New Chautauqua is bookended by two travel diaries. The title opener cracks like a morning egg onto a sizzling griddle. Here, as throughout, we find an entire desert compressed into a single grain of sand, needing only the microscope of Metheny’s meticulous syncopations to make our way through its staggering terrain. At the far end of the tunnel is new life lit by “Daybreak.” Additional guitars and bass ooze with optimism in this divided smile, holding fast to the idea of—but never the physical need for—a destination.

Along the way, we encounter a string of contemplative rest stops, each the trail marker of a limpid night. Every verse of “Country Poem” makes for a fitting prelude to the diptych of “Long-Ago Child/Fallen Star,” in which the 15-string harp guitar dialogues with an open slide in the lead. Such delicacy can only be drawn in negative space, using pigments of regret and joy in equal measure. A heavy pause inhales deeply before expelling its acoustic splendor, hovering over arpeggiated flowers like a silent and thoughtful bee whose days are numbered, but whose memory lives on through a psychological pollen of sorts that cross-fertilizes vaster, less visible pastures. “Hermitage” might as well be the album’s title, so thoughtful are its steps, each a point along a circle of plot and resolution. Yet the needle in the New Chautauqua haystack is “Sueño Con Mexico.” Threaded by an acoustic ostinato, around which Metheny gilds ornamental embraces, its unyielding grace never fails to unhinge. It has the entire world’s natural cycles in its purview, turning as might an eddy in an April stream.

Metheny’s is a highly refined world that is as loose as it is exacting, written in the kind of polished script that can only come from a musical path forged through love of communication. Among decades of varied output, this stands as one of his most vivid sonic postcards for the yet-to-be.

TRACKLIST

1. Pat Metheny Group - (Cross The) Heartland
2. Pat Metheny Group - Airstream
3. Pat Metheny Group - The Search
4. Pat Metheny Group - American Garage
5. Pat Metheny Group - The Epic

foobar2000 1.3.16 / Dynamic Range Meter 1.1.1
log date: 2020-08-01 08:12:17

––––––––––––––––––––––––––––––––––––––––
Analyzed: Pat Metheny Group / American Garage (Remastered)
––––––––––––––––––––––––––––––––––––––––

DR Peak RMS Duration Track
––––––––––––––––––––––––––––––––––––––––
DR13 -1.63 dB -18.68 dB 7:00 01-(Cross The) Heartland
DR13 -1.93 dB -19.34 dB 6:20 02-Airstream
DR10 -3.00 dB -17.33 dB 4:54 03-The Search
DR12 -2.07 dB -17.47 dB 4:12 04-American Garage
DR12 -2.68 dB -18.62 dB 12:59 05-The Epic
––––––––––––––––––––––––––––––––––––––––

Number of tracks: 5
Official DR value: DR12

Samplerate: 96000 Hz
Channels: 2
Bits per sample: 24
Bitrate: 2958 kbps
Codec: FLAC
================================================================================



Thanks to the Original customer.