Tags
Language
Tags
February 2023
Su Mo Tu We Th Fr Sa
29 30 31 1 2 3 4
5 6 7 8 9 10 11
12 13 14 15 16 17 18
19 20 21 22 23 24 25
26 27 28 1 2 3 4

Patchwork - Patchwork (1972/2022) [Official Digital Download 24/192]

Posted By: pyatak
Patchwork - Patchwork (1972/2022) [Official Digital Download 24/192]

Patchwork - Patchwork (1972/2022) [Official Digital Download 24/192]
FLAC (tracks) 24-bit/192 kHz | Front Cover | Time - 29:03 minutes | 1,19 GB
Rock, Blues Rock | Label: RCA - Legacy, Official Digital Download

Gemma has spent the past 15 years developing her voice across rock, blues and soul finding influence in gut-punching artists such as Melissa Etheridge and Joe Cocker. Gemma currently leads blues/rock band Eleven:11, who play the music of Joe Bonamassa, Etta James, King King, Susan Tedeschi and more.

Rory speaks by day and sings by night. A professional voiceover artist, he’s worked on TV and radio commercials, corporate videos, animations and even pretended to be Ringo Starr on a telephone call! He can speak French, which comes in handy, when the band perform French songs. They’ve also done some Italian numbers … but Rory doesn’t speak Italian.

TRACKLIST

1. Patchwork - Freeborn Man
2. Patchwork - Blue Skies and Teardrops
3. Patchwork - Rainin' Outside My Door
4. Patchwork - Mountain Lady
5. Patchwork - You Ain't Goin' Nowhere
6. Patchwork - What is the Color of the Soul of Man
7. Patchwork - Kelli
8. Patchwork - You Better Know What You're Doing
9. Patchwork - Memoirs
10. Patchwork - Clear Creek Waterfall

foobar2000 1.6.2 / Dynamic Range Meter 1.1.1
log date: 2022-03-12 20:07:03

––––––––––––––––––––––––––––––––––––––––
Analyzed: Patchwork / Patchwork
––––––––––––––––––––––––––––––––––––––––

DR Peak RMS Duration Track
––––––––––––––––––––––––––––––––––––––––
DR12 -2.89 dB -16.78 dB 3:12 01-Freeborn Man
DR11 -2.75 dB -15.68 dB 2:41 02-Blue Skies and Teardrops
DR11 -1.93 dB -15.84 dB 3:57 03-Rainin' Outside My Door
DR10 -3.50 dB -17.10 dB 3:26 04-Mountain Lady
DR11 -2.24 dB -15.03 dB 2:26 05-You Ain't Goin' Nowhere
DR12 -2.58 dB -16.97 dB 2:13 06-What is the Color of the Soul of Man
DR11 -2.57 dB -16.36 dB 2:40 07-Kelli
DR12 -0.04 dB -15.30 dB 3:18 08-You Better Know What You're Doing
DR11 -2.01 dB -16.31 dB 2:43 09-Memoirs
DR12 -0.95 dB -14.72 dB 2:33 10-Clear Creek Waterfall
––––––––––––––––––––––––––––––––––––––––

Number of tracks: 10
Official DR value: DR11

Samplerate: 192000 Hz
Channels: 2
Bits per sample: 24
Bitrate: 5983 kbps
Codec: FLAC
================================================================================



Thanks to the Original customer.