Tags
Language
Tags

Patti Smith - Gung Ho (2000/2018) [Official Digital Download 24/44-96]

Posted By: pyatak
Patti Smith - Gung Ho (2000/2018) [Official Digital Download 24/44-96]

Patti Smith - Gung Ho (2000/2018) [Official Digital Download 24/44-96]
FLAC (tracks) 24-bit/44.1-96 kHz | Front Cover | Time - 64:32 minutes | 990 MB
Rock | Label: Arista, Official Digital Download

A quarter of a century after the release of her debut album "Horses", New York political rebel Patti Smith shows that the old fire is still burning. She presents herself very powerfully and energetically on "Gung Ho" and professes her musical history in all clarity.

No Samples, no Breaks, no synthetic sounds. Instead, razor-sharp guitar riffs, driving drums and a grumbling rock bass guarantee a refreshingly old-fashioned sound and high recognition value.

Patti's voice is unmistakable anyway and has a lot of warmth (age wisdom?) extracted. She still denounces social grievances, recalls the drug misery in the cities or the legacy of the Vietnam War: in the title song threatening guitars mix with the rattling of the US war helicopters.

But where in earlier years a plaintive and snappy tone crept in, Mrs. Smith allows herself today at best a restrained melancholy. And when one song ("China Bird") is all too sad, immediately follows a brightener with punky-fast lead guitar.

Musically, all this is not exactly revolutionary and not only with "Grateful" you would like to swear to have heard the song before. Schuster, stick to your ledges, the singer may have thought: this is songwriting at the highest level and she has found excellent collaborators in her old guitarist Lenny Kaye and the REM singer Michael Stipe.

TRACKLIST

1. Patti Smith - One Voice
2. Patti Smith - Lo and Beholden
3. Patti Smith - Boy Cried Wolf
4. Patti Smith - Persuasion
5. Patti Smith - Gone Pie
6. Patti Smith - China Bird
7. Patti Smith - Glitter In Their Eyes
8. Patti Smith - Strange Messengers
9. Patti Smith - Grateful
10. Patti Smith - Upright Come
11. Patti Smith - New Party
12. Patti Smith - Libbie's Song
13. Patti Smith - Gung Ho

foobar2000 1.6.2 / Dynamic Range Meter 1.1.1
log date: 2021-05-13 07:45:00

––––––––––––––––––––––––––––––––––––––––
Analyzed: Patti Smith / Gung Ho
––––––––––––––––––––––––––––––––––––––––

DR Peak RMS Duration Track
––––––––––––––––––––––––––––––––––––––––
DR6 -0.45 dB -8.56 dB 4:05 01-One Voice
DR7 -0.49 dB -9.14 dB 4:52 03-Boy Cried Wolf
DR6 -0.49 dB -7.97 dB 4:33 04-Persuasion
DR7 -0.35 dB -8.94 dB 4:04 05-Gone Pie
DR6 -0.18 dB -7.83 dB 3:03 07-Glitter In Their Eyes
DR6 -0.57 dB -8.32 dB 8:03 08-Strange Messengers
DR7 -0.56 dB -9.36 dB 4:30 09-Grateful
DR6 -0.45 dB -8.40 dB 2:58 10-Upright Come
DR7 -0.58 dB -8.56 dB 4:30 11-New Party
DR10 -0.66 dB -12.32 dB 3:27 12-Libbie's Song
––––––––––––––––––––––––––––––––––––––––

Number of tracks: 10
Official DR value: DR7

Samplerate: 44100 Hz
Channels: 2
Bits per sample: 24
Bitrate: 1609 kbps
Codec: FLAC
================================================================================

––––––––––––––––––––––––––––––––––––––––
Analyzed: Patti Smith / Gung Ho
––––––––––––––––––––––––––––––––––––––––

DR Peak RMS Duration Track
––––––––––––––––––––––––––––––––––––––––
DR6 -0.56 dB -9.71 dB 4:43 02-Lo and Beholden
DR7 -0.44 dB -9.64 dB 4:07 06-China Bird
DR7 -0.46 dB -9.38 dB 11:42 13-Gung Ho
––––––––––––––––––––––––––––––––––––––––

Number of tracks: 3
Official DR value: DR7

Samplerate: 96000 Hz
Channels: 2
Bits per sample: 24
Bitrate: 3107 kbps
Codec: FLAC
================================================================================



Thanks to the Original customer.