Patti Smith Group - Wave (1979/2018) [Official Digital Download 24/192]

Posted By: pyatak
Patti Smith Group - Wave (1979/2018) [Official Digital Download 24/192]

Patti Smith Group - Wave (1979/2018) [Official Digital Download 24/192]
FLAC (tracks) 24-bit/192 kHz | Front Cover | Time - 38:14 minutes | 1,23 GB
Rock | Label: Arista - Legacy, Official Digital Download

Wave is the fourth studio album by the Patti Smith Group, released May 17, 1979, on Arista Records. This album was less commercially successful than its predecessor, Easter, although it continued the band's move towards more radio-friendly mainstream pop music. It was produced by artist/producer Todd Rundgren.

TRACKLIST

1. Patti Smith Group - Frederick
2. Patti Smith Group - Dancing Barefoot
3. Patti Smith Group - So You Want to Be
4. Patti Smith Group - Hymn
5. Patti Smith Group - Revenge
6. Patti Smith Group - Citizen Ship
7. Patti Smith Group - Seven Ways Of Going
8. Patti Smith Group - Broken Flag
9. Patti Smith Group - Wave

foobar2000 1.6.2 / Dynamic Range Meter 1.1.1
log date: 2021-05-07 20:07:37

––––––––––––––––––––––––––––––––––––––––
Analyzed: Patti Smith Group / Wave
––––––––––––––––––––––––––––––––––––––––

DR Peak RMS Duration Track
––––––––––––––––––––––––––––––––––––––––
DR10 -0.36 dB -12.63 dB 3:05 01-Frederick
DR11 -0.96 dB -14.57 dB 4:17 02-Dancing Barefoot
DR10 -0.19 dB -11.80 dB 4:21 03-So You Want to Be
DR13 -6.07 dB -22.93 dB 1:12 04-Hymn
DR11 -2.02 dB -16.79 dB 5:07 05-Revenge
DR11 -0.73 dB -13.38 dB 5:13 06-Citizen Ship
DR11 -1.02 dB -14.97 dB 5:22 07-Seven Ways Of Going
DR11 -1.97 dB -15.99 dB 5:00 08-Broken Flag
DR13 -4.14 dB -21.62 dB 4:41 09-Wave
––––––––––––––––––––––––––––––––––––––––

Number of tracks: 9
Official DR value: DR11

Samplerate: 192000 Hz
Channels: 2
Bits per sample: 24
Bitrate: 4227 kbps
Codec: FLAC
================================================================================



Thanks to the Original customer.