Paul Badura-Skoda - Paul Badura-Skoda plays Franz Schubert (2013) [Official Digital Download]

Posted By: SERTiL
Paul Badura-Skoda - Paul Badura-Skoda plays Franz Schubert (2013) [Official Digital Download]

Paul Badura-Skoda - Paul Badura-Skoda plays Franz Schubert (2013)
FLAC (tracks) 24-bit/44.1 kHz | Time - 143:25 minutes | 807 MB
Studio Master, Official Digital Download | Artwork: Digital Booklet

Even at a very advanced age, the great pianist Paul Badura Skoda is always good for a surprise: His new CD recording with Genuin is perhaps one of the most unusual recordings, one of the most daring tonal experiments seen in recent years. Schubert’s final sonata, the wonderful B-flat major, has been recorded by Badura-Skoda, but not just once: It is heard on three different instruments in interpretations which could not be more distinctive from one another: On an 1826 Graf fortepiano (from when the work was composed), a 1923 Bösendorfer and a 2004 Steinway grand. More history and more vibrancy in its presentation could not be packed into a single disc. Superb!



Tracklist:

Franz Schubert (1797–1828)

3 Klavierstucke, D. 946
01. No. 1 in E flat minor 8:30
02. No. 2 in E flat major 11:19
03. No. 3 in C major 5:20

Piano Sonata No. 21 in B flat major, D. 960
(Conrad Graf Fortepiano, c. 1826)
04. I. Molto moderato 19:41
05. II. Andante sostenuto 8:28
06. III. Scherzo: Allegro vivace con delicatezza 4:18
07. IV. Allegro ma non troppo 8:40

Piano Sonata No. 21 in B flat major, D. 960
(Steinway No. 569686, 2004)
08. I. Molto moderato 19:24
09. II. Andante sostenuto 8:31
10. III. Scherzo: Allegro vivace con delicatezza 4:12
11. IV. Allegro ma non troppo 8:50

Piano Sonata No. 21 in B flat major, D. 960
(Bösendorfer No. 23274, 1923)
12. I. Molto moderato 14:44
13. II. Andante sostenuto 8:38
14. III. Scherzo: Allegro vivace con delicatezza 4:14
15. IV. Allegro ma non troppo 8:36

Personnel:
Paul Badura-Skoda (fortepiano)

foobar2000 1.3.7 / Dynamic Range Meter 1.1.1
log date: 2018-03-19 14:29:28

––––––––––––––––––––––––––––––––––––––––
Analyzed: Paul Badura-Skoda / Paul Badura-Skoda plays Franz Schubert
––––––––––––––––––––––––––––––––––––––––

DR Peak RMS Duration Track
––––––––––––––––––––––––––––––––––––––––
DR14 -0.10 dB -18.69 dB 8:30 01-3 Klavierstucke, D. 946: No. 1 in E flat minor
DR14 -0.27 dB -19.39 dB 11:19 02-3 Klavierstucke, D. 946: No. 2 in E flat major
DR13 -0.10 dB -16.99 dB 5:20 03-3 Klavierstucke, D. 946: No. 3 in C major
DR16 0.00 dB -20.71 dB 19:42 04-Piano Sonata No. 21 in B flat major, D. 960: I. Molto moderato
DR15 -3.88 dB -24.12 dB 8:29 05-Piano Sonata No. 21 in B flat major, D. 960: II. Andante sostenuto
DR13 -2.58 dB -20.26 dB 4:18 06-Piano Sonata No. 21 in B flat major, D. 960: III. Scherzo: Allegro vivace con delicatezza
DR14 -1.45 dB -19.20 dB 8:41 07-Piano Sonata No. 21 in B flat major, D. 960: IV. Allegro ma non troppo
DR16 -0.65 dB -22.11 dB 19:24 08-Piano Sonata No. 21 in B flat major, D. 960: I. Molto moderato
DR17 -4.06 dB -25.73 dB 8:31 09-Piano Sonata No. 21 in B flat major, D. 960: II. Andante sostenuto
DR13 -4.74 dB -23.08 dB 4:13 10-Piano Sonata No. 21 in B flat major, D. 960: III. Scherzo: Allegro vivace con delicatezza
DR14 -1.29 dB -20.78 dB 8:50 11-Piano Sonata No. 21 in B flat major, D. 960: IV. Allegro ma non troppo
DR15 0.00 dB -21.12 dB 14:45 12-Piano Sonata No. 21 in B flat major, D. 960: I. Molto moderato
DR14 -4.65 dB -24.56 dB 8:39 13-Piano Sonata No. 21 in B flat major, D. 960: II. Andante sostenuto
DR13 -5.30 dB -21.08 dB 4:15 14-Piano Sonata No. 21 in B flat major, D. 960: III. Scherzo: Allegro vivace con delicatezza
DR14 -0.76 dB -19.49 dB 8:37 15-Piano Sonata No. 21 in B flat major, D. 960: IV. Allegro ma non troppo
––––––––––––––––––––––––––––––––––––––––

Number of tracks: 15
Official DR value: DR14

Samplerate: 44100 Hz
Channels: 2
Bits per sample: 24
Bitrate: 469 kbps
Codec: FLAC
================================================================================


Thanks to the Original customer.