Paul Kuhn with John Clayton & Jeff Hamilton - The L.A. Session (Remastered Deluxe Edition) (2013/2021) [24/96]

Posted By: pyatak
Paul Kuhn with John Clayton & Jeff Hamilton - The L.A. Session (Remastered Deluxe Edition) (2013/2021) [24/96]

Paul Kuhn with John Clayton & Jeff Hamilton - The L.A. Session (Remastered Deluxe Edition) (2013/2021) [24/96]
FLAC (tracks) 24-bit/96 kHz | Front Cover | Time - 54:02 minutes | 1,08 GB
Jazz | Label: IN+OUT Records, Official Digital Download

The L.A. Session' by the veteran German jazz pianist and vocalist Paul Kuhn was recorded at the legendary Capitol Studios in Los Angeles. Backed by an A-list rhythm section - drummer Jeff Hamilton and bassist John Clayton - he performs a set of classic jazz standards as well as two of his own compositions. With his unmistakable sense of rhythm and melody, Kuhn appears to absorb each individual note and transforms it into a very special art of timeless swing.

TRACKLIST

01. Paul Kuhn with John Clayton & Jeff Hamilton - Almost the Blues
02. Paul Kuhn with John Clayton & Jeff Hamilton - Just in Time
03. Paul Kuhn with John Clayton & Jeff Hamilton - Close Your Eyes
04. Paul Kuhn with John Clayton & Jeff Hamilton - You've Changed
05. Paul Kuhn with John Clayton & Jeff Hamilton - On a Clear Day You Can See Forever
06. Paul Kuhn with John Clayton & Jeff Hamilton - Griff
07. Paul Kuhn with John Clayton & Jeff Hamilton - Dinah
08. Paul Kuhn with John Clayton & Jeff Hamilton - Speak Low
09. Paul Kuhn with John Clayton & Jeff Hamilton - Emily
10. Paul Kuhn with John Clayton & Jeff Hamilton - There Will Never Be Another You
11. Paul Kuhn with John Clayton & Jeff Hamilton - My Heart Stood Still
12. Paul Kuhn with John Clayton & Jeff Hamilton - Ornithology
13. Paul Kuhn with John Clayton & Jeff Hamilton - People
14. Paul Kuhn with John Clayton & Jeff Hamilton - As Time Goes By
15. Paul Kuhn with John Clayton & Jeff Hamilton - Don't Mean a Thing (If It Ain't Got That Swing)
16. Paul Kuhn with John Clayton & Jeff Hamilton - My World of Music

foobar2000 1.6.2 / Dynamic Range Meter 1.1.1
log date: 2021-04-07 19:52:46

––––––––––––––––––––––––––––––––––––––––
Analyzed: Paul Kuhn with John Clayton & Jeff Hamilton / The L.A. Session (Remastered Deluxe Edition)
––––––––––––––––––––––––––––––––––––––––

DR Peak RMS Duration Track
––––––––––––––––––––––––––––––––––––––––
DR10 -0.50 dB -12.70 dB 4:29 01-Almost the Blues
DR10 -0.50 dB -11.74 dB 2:32 02-Just in Time
DR10 -0.50 dB -12.40 dB 3:12 03-Close Your Eyes
DR11 -0.50 dB -13.69 dB 3:06 04-You've Changed
DR10 -0.50 dB -12.99 dB 6:26 05-On a Clear Day You Can See Forever
DR11 -0.50 dB -13.61 dB 4:46 06-Griff
DR11 -0.50 dB -12.80 dB 2:58 07-Dinah
DR10 -0.50 dB -12.15 dB 3:11 08-Speak Low
DR11 -0.50 dB -13.97 dB 4:23 09-Emily
DR11 -0.50 dB -13.60 dB 2:58 10-There Will Never Be Another You
DR10 -0.50 dB -13.58 dB 2:42 11-My Heart Stood Still
DR10 -0.50 dB -12.93 dB 2:52 12-Ornithology
DR11 -1.01 dB -16.03 dB 2:34 13-People
DR11 -0.50 dB -14.24 dB 2:38 14-As Time Goes By
DR10 -0.50 dB -12.32 dB 2:57 15-Don't Mean a Thing (If It Ain't Got That Swing)
DR9 -0.50 dB -11.16 dB 2:26 16-My World of Music
––––––––––––––––––––––––––––––––––––––––

Number of tracks: 16
Official DR value: DR10

Samplerate: 96000 Hz
Channels: 2
Bits per sample: 24
Bitrate: 3007 kbps
Codec: FLAC
================================================================================



Thanks to the Original customer.