Paul Weller - Other Aspects, Live at the Royal Festival Hall (2019) [Official Digital Download]

Posted By: pyatak
Paul Weller - Other Aspects, Live at the Royal Festival Hall (2019) [Official Digital Download]

Paul Weller - Other Aspects, Live at the Royal Festival Hall (2019) [Official Digital Download]
FLAC (tracks) 24-bit/44.1 kHz | Front Cover | Time - 01:35:48 minutes | 1,04 GB
Pop Rock | Label: Parlophone Records, Official Digital Download

Hot on the heels of Paul Weller’s excellent True Meanings album comes Other Aspects an audio/video release of last year’s celebrated concert at London’s Royal Festival Hall with featured Weller, band and an orchestra.

Hot on the heels of Paul Weller’s excellent True Meanings album comes Other Aspects an audio/video release of last year’s celebrated concert at London’s Royal Festival Hall with featured Weller, band and an orchestra.

Other Aspects: Live at the Royal Festival Hall is being issued as a 3LP+DVD set or a 2CD+DVD package. Both feature 25 tracks although as you might expect the setlist is heavy with songs from Weller’s most recent album (11 of True Meanings 14 tracks are performed.

As has become the normal in terms of promoting home video releases, there will be special cinema screenings of the performance across the UK, and these will include some never-before-seen studio footage, rehearsals and interviews exclusive to these cinema events.

TRACKLIST

1. One Bright Star (Live at the Royal Festival Hall)
2. Glide (Live at the Royal Festival Hall)
3. The Soul Searchers (Live at the Royal Festival Hall)
4. Boy About Town (Live at the Royal Festival Hall)
5. Have You Ever Had It Blue (Live at the Royal Festival Hall)
6. What Would He Say? (Live at the Royal Festival Hall)
7. Wild Wood (Live at the Royal Festival Hall)
8. Country (Live at the Royal Festival Hall)
9. Aspects (Live at the Royal Festival Hall)
10. Strange Museum (Live at the Royal Festival Hall)
11. Amongst Butterflies (Live at the Royal Festival Hall)
12. Old Castles (Live at the Royal Festival Hall)
13. Gravity (Live at the Royal Festival Hall)
14. Where’er Ye Go (Live at the Royal Festival Hall)
15. A Man Of Great Promise (Live at the Royal Festival Hall)
16. Mayfly (Live at the Royal Festival Hall)
17. Private Hell (Live at the Royal Festival Hall)
18. Tales From The Riverbank (Live at the Royal Festival Hall)
19. Movin On (Live at the Royal Festival Hall)
20. Long Long Road (Live at the Royal Festival Hall)
21. Hopper (Live at the Royal Festival Hall)
22. White Horses (Live at the Royal Festival Hall)
23. Books (Live at the Royal Festival Hall)
24. You Do Something To Me (Live at the Royal Festival Hall)
25. May Love Travel With You (Live at the Royal Festival Hall)

foobar2000 1.3.16 / Dynamic Range Meter 1.1.1
log date: 2019-03-07 18:15:39

––––––––––––––––––––––––––––––––––––––––
Analyzed: Paul Weller / Other Aspects, Live at the Royal Festival Hall
––––––––––––––––––––––––––––––––––––––––

DR Peak RMS Duration Track
––––––––––––––––––––––––––––––––––––––––
DR9 0.00 dB -10.68 dB 4:15 01-One Bright Star (Live at the Royal Festival Hall)
DR12 0.00 dB -16.14 dB 2:27 02-Glide (Live at the Royal Festival Hall)
DR10 0.00 dB -12.82 dB 4:55 03-The Soul Searchers (Live at the Royal Festival Hall)
DR8 0.00 dB -9.39 dB 2:56 04-Boy About Town (Live at the Royal Festival Hall)
DR10 0.00 dB -10.73 dB 3:59 05-Have You Ever Had It Blue (Live at the Royal Festival Hall)
DR10 0.00 dB -11.91 dB 3:55 06-What Would He Say? (Live at the Royal Festival Hall)
DR11 0.00 dB -12.75 dB 4:07 07-Wild Wood (Live at the Royal Festival Hall)
DR11 0.00 dB -13.84 dB 3:51 08-Country (Live at the Royal Festival Hall)
DR12 0.00 dB -14.17 dB 5:07 09-Aspects (Live at the Royal Festival Hall)
DR9 0.00 dB -11.01 dB 4:01 10-Strange Museum (Live at the Royal Festival Hall)
DR10 0.00 dB -10.84 dB 2:58 11-Amongst Butterflies (Live at the Royal Festival Hall)
DR9 0.00 dB -10.01 dB 3:14 12-Old Castles (Live at the Royal Festival Hall)
DR12 0.00 dB -14.28 dB 2:56 13-Gravity (Live at the Royal Festival Hall)
DR11 -0.22 dB -15.86 dB 2:51 14-Where'er Ye Go (Live at the Royal Festival Hall)
DR9 0.00 dB -9.83 dB 2:52 15-A Man Of Great Promise (Live at the Royal Festival Hall)
DR9 0.00 dB -12.47 dB 3:49 16-Mayfly (Live at the Royal Festival Hall)
DR8 0.00 dB -9.90 dB 5:19 17-Private Hell (Live at the Royal Festival Hall)
DR8 0.00 dB -9.84 dB 3:31 18-Tales From The Riverbank (Live at the Royal Festival Hall)
DR9 0.00 dB -11.15 dB 4:40 19-Movin On (Live at the Royal Festival Hall)
DR9 0.00 dB -10.19 dB 3:45 20-Long Long Road (Live at the Royal Festival Hall)
DR9 0.00 dB -10.14 dB 3:02 21-Hopper (Live at the Royal Festival Hall)
DR8 0.00 dB -11.59 dB 5:47 22-White Horses (Live at the Royal Festival Hall)
DR13 0.00 dB -17.78 dB 4:16 23-Books (Live at the Royal Festival Hall)
DR10 0.00 dB -12.12 dB 4:02 24-You Do Something To Me (Live at the Royal Festival Hall)
DR12 0.00 dB -14.67 dB 3:21 25-May Love Travel With You (Live at the Royal Festival Hall)
––––––––––––––––––––––––––––––––––––––––

Number of tracks: 25
Official DR value: DR10

Samplerate: 44100 Hz
Channels: 2
Bits per sample: 24
Bitrate: 1549 kbps
Codec: FLAC
================================================================================



Thanks to the Original customer.